&title=Lapis
&artist=SHIKI
&first=0.074
&des=ホシノちゃん
&clock_count=4
&wholebpm=146.000
&lv_5=13
&des_5=ホシノちゃん
&inote_5=(146)
{1},
{16}2,,,2,,,3,,,3,,,4,,4,,8,,,8,,,7,,,7,,,6,,6,,
{16}3,,,3,,,2,,,2,,,1,,1,,5,,,5,,,6,,,6,,,7,,7,,
{16}2-5[16:1],,,2,,,1-6[16:1],,,1,,,4,,4,,
{16}7-4[16:1],,,7,,,8-3[16:1],,,8,,,5,,6,,
{16}7>2[16:1],,,7,,,7<4[16:1],,,7,,,3,,3,,
{16}2<7[16:1],,,2,,,2>5[16:1],,,2,,,6,,6,,
{16}8h[4:1],,6,,4,,2,3,,3,4,,5/6,,,,1h[4:1],,3,,5,,7,6,,6,5,,4/3,,,,
{16}2h[4:1],,1,,7,,5,5,,3-7[16:1],3,,2,,,,7h[4:1],,8,,2,,4,4,,6-2[16:1],6,,7,,8,,
{16}1-5[8:1],,1,,8,,7,7,,5-2[8:1],5,,6,,,,8-4[8:1],,8,,1,,2,2,,4-7[8:1],4,,3,,,,
{16}2-6[8:1],,2,,1,,8,7,8,1,2,,3/4,,,,7-3[8:1],,7,,8,,1,2,1,8,7,,6/5,,2/3,,
{16}1b/8b,,7,,7,5,,5,3,,3,1,,1,7,,7,,1/8,,8,2,,2,4,,4,6,,6,8,,
{16}1,,2/8,,3,4,,6,5,,2,1,,7,8,,8,,1/7,,6,5,,3,4,,7,8,,2,1,,
{16}2/8,,7,,2,4,,7,5,,1,3,,8,6,,7/1,,2,,7,5,,2,4,,8,6,,1,3,,
{16}1/7,,8,,1/2,,2,3,,7,6,,4/5,,3,,8/2,,1,,8/7,,7,6,,2,3,,5/4,,6,,
{4}3-8[8:1]/7-4[8:1],3/7,8-3[8:1]/4-7[8:1],4/8,
{4}3>8[8:1]/7<4[8:1],3/7,8>3[8:1]/4<7[8:1],4/8,
{4}6-1[8:1]/2-5[8:1],6/2,1-6[8:1]/5-2[8:1],5/1,
{4}6<1[8:1]/2>5[8:1],6/2,1<6[8:1]/5>2[8:1],5/1,
{4}1-6[4:1],6>3[4:1],3-8[8:1],1<6[4:1],6-2[4:1],2>5[4:1],5-1[8:1],8,
{4}8-3[4:1],3<6[4:1],6-1[8:1],8>3[4:1],3-7[4:1],7<4[4:1],4-8[8:1],1b,
{4}6h[4:15]/2-5[2:1],,,,5-8[2:1],,,,8>3[2:1],,,,3-7[2:1],,,,
{4}1h[4:15]/8-5[2:1],,,,5>2[2:1],,,,2<7[2:1],,,,7-3[2:1],,,,
{4}2-5[4:1],5-1[4:1],1-6[4:1],,7>2[4:1],2>5[4:1],5<8[8:1],,
{4}7-4[4:1],4-8[4:1],8-3[4:1],,2<7[4:1],7<4[4:1],4>1[8:1],,
{4}2-6[8:1],2<7[4:1],7<4[4:1],,8>3[4:1],3-7[4:1],7<4[8:1],,
{4}7-3[8:1],7>2[4:1],2>5[4:1],,1<6[4:1],6-2[4:1],2>5[8:1],,
{4}7-3[8:1],7,1-5[8:1],1,5-2[8:1]/6-1[8:1],,4<7[8:1]/3>8[8:1],,
{4}7-3[8:1],8-4[8:1],1-5[8:1],,2>5[8:1]/6<1[8:1],,8-4[8:1],8,
{4}2-6[8:1],2,8-4[8:1],8,4-7[8:1]/3-8[8:1],,5>2[8:1]/6<1[8:1],,
{4}2-6[8:1],1-5[8:1],8-4[8:1],,7<4[8:1]/3>8[8:1],,
{16}1h[4:1],4,5,6,7b,,,,8h[4:1],,,,
{16}2b,1,2,3,4,,8,1,8,7,6,,4/5,,3,,8,7,8,1,2,,5,6,5,4,3,,1/2,,8,,
{16}7,8,7,6,5,,1,8,1,2,3,,5/4,,6,,1,2,1,8,7,,4,3,4,5,6,,8/7,,1,,
{16}1h[4:1],2,3,4,5,,7h[4:1],6,5,4,3,,4/8,,2/6,,5h[4:1],1,2,3,4,,3h[4:1],1,8,7,6,,1/5,,3/7,,
{16}8h[4:1],7,6,5,4,,2h[4:1],3,4,5,6,,5/1,,7/3,,4h[4:1],8,7,6,5,,6h[4:1],8,1,2,3,,8/4,,6/2,,
{16}1,8,2,7,8,,7,5,6>3[8:1],5,7,,,,,,2,1,3,1,2,,8,1,7>2[8:1],4,6,,,,,,
{16}8,1,7,2,1,,2,4,3<6[8:1],4,2,,,,,,7,8,6,8,7,,1,8,2<7[8:1],5,3,,,,,,
{16}1,8,2,1,2,,8,1,6,4,5,,1/8,2/7,3/6,,3,5,4,6,5,,1,2,7,1,8,,7/8,1/6,2/5,,
{16}8,1,7,8,7,,1,8,3,5,4,,8/1,7/2,6/3,,6,4,5,3,4,,8,7,1,2,3,4,5-1[1:2],6,7,8,1b,
&lv_6=13+
&des_6=ホシノちゃん
&inote_6=(146)
{1},
{16}2h[8:5]/4,,,5,,,6,,,7>2[8:1],,,3,,4,,
{16}5h[8:5],,,4,,,6,,,7-4[8:1],,,3,,3,,
{16}7h[8:5]/5,,,4,,,3,,,2<7[8:1],,,6,,5,,
{16}4h[8:5],,,5,,,3,,,2-5[8:1],,,6,,6,,
{16}7-5[8:1],,,4,,,3-5[8:1],,,2h[16:1],,,1,,8,,7-4[8:1],,,8,,,1-5[8:1],,,6h[16:1],,,7,,1/8,,
{16}2-4[8:1],,,5,,,6-4[8:1],,,7h[16:1],,,8,,1,,2-5[8:1],,,1,,,8-4[8:1],,,3h[16:1],,,2,,8/1,,
{16}2b-4[8:1]/6b,,7,,8/2,,1,,8-4[8:1],,3,3,8,,2,,1>4[8:1],,4,5,6/1,7,8,,1<6[8:1],,6,5,4/1,3,2,,
{16}1-4[8:1],,4,5,6/1,7,8,1,3-8[8:1],,1,8,7/3,6,5,4,1,2,3,4,5/1-3[8:1],8,7,6,1-5[8:1],,5-3[8:1],,1,,,,
{16}8-4[8:1],8,,3,8,2,2,,
{24}1h[8:1],,,7,6,5,2h[8:1],,,4h[8:1],,,
{16}1,5<8[8:1],,2,,,3,,
{24}4h[8:1],,,1,8,7,2h[8:1],,,6h[8:1],,,
{16}1>4[8:1],1,,5,6,7,8,,
{24}5h[8:1],,,1,8,7,3h[8:1],,,6h[8:1],,,
{16}2-4[8:1],,4V28[4:1],4,2,,8q5[8:1],,5,,6h[16:1],,7,,8,,
{16}7b-5[8:1]/3b,,2,,1/7,,8,,1-5[8:1],,6,6,1,,7,,8<5[8:1],,5,4,3/8,2,1,,8>3[8:1],,3,4,5/8,6,7,,
{16}8-5[8:1],,5,4,3/8,2,1,8,6-1[8:1],,8,1,2/6,3,4,5,8,7,6,5,4/8-6[8:1],1,2,3,8-4[8:1],,4-6[8:1],,8,,,,
{16}1-5[8:1],1,,6,1,7,7,,
{24}8h[8:1],,,2,3,4,7h[8:1],,,5h[8:1],,,
{16}8,4>1[8:1],,7,,,6,,
{24}5h[8:1],,,8,1,2,7h[8:1],,,3h[8:1],,,
{16}8<5[8:1],8,,4,3,2,1,,
{24}4h[8:1],,,8,1,2,6h[8:1],,,3h[8:1],,,
{16}7-5[8:1],,5V71[4:1],5,7,,1p4[8:1],,4,,3h[16:1],,2,,1,,
{16}2b>5[8:1]/6b,,5,6,7,8,1,,1<6[8:1],,6,5,4,3,2,,
{16}2,1,3-5[8:1],8,,1,1,,7,8,6-4[8:1],1,,8,8,,
{16}2h[4:1],,4>1[8:1],5,6,7,8,,7h[4:1],,1<6[8:1],2,3,4,5,,4,3,2,1,4-2[8:1],5,6,7,4-8[8:1],,8-2[8:1],,4,,,,
{16}7p3[8:1],7,,4,3-6[8:1],2,1h[8:1],,
{24},,,1,2,3,4h[8:1]/7,,,,,,
{16}5<8[8:1],5,,8,1-5[8:1],2,3,,1,,
{24}4,3,2,1/6h[8:1],,,,,,
{16}2q6[8:1],2,,5,6-3[8:1],7,8h[8:1],,
{24},,,8,7,6,5h[8:1]/2,,,,,,
{8}1,2/8,3/7,4/6,
{16}3,3,4,4,5,5,6,6,
{4}1bs5[2:3],,,,,,,,5z1[2:3]/8s4[2:3],,,,,,,,1-5[2:3]/5-1[2:3],,,,,,,,4v1[2:1]/8-5[2:1],,,,1-5[4:1],,
{24}8,7,6,5,4,3,2,1,8,7,6,5,
{4}1b>4[4:1],4<7[4:1],7V13[4:1],3V57[4:1],7q2[2:1],,,,8<4[4:1],4-8[4:1],2s6[8:3],,
{8}7<4[4:1],,,2<7[4:1],,,5s1[8:3],,3h[2:1],,,,
{12}7h,6h,5h,4h,3h,2h,
{8}1-5[4:1],,,6>3[4:1],,,2<7[4:1],,6qq4[8:3],,,,2qq8[8:3],,,,6z2[8:3],,,2w6[4:1],,,,,
{4}3<5[8:1],3/8<5[8:1]*>3[8:1],8p4[8:1],8/2z6[4:1],5pp1[8:5],,2-4[8:1],2,
{4}6>4[8:1],6/1>4[8:1]*<6[8:1],1q5[8:1],1/7s3[4:1],4qq8[8:5],,7-5[8:1],7,
{12}1V74[8:1]*V36[8:1],,,,,,3h,2h,1h,8h,7h,6h,
{8}5s1[4:1],,,2>5[4:1],,,8<5[8:1]*p4[8:1],,
{4}8,2q6[8:1]*>5[8:1],2,8<1[2:1],4z8[4:1],,
{8},1,2,3h[8:3]/8,7h[8:1],,
{16}7b<4[8:1],,4,3,2,1,8,,8>3[8:1],,3,4,5,6,7,,
{16}7,8,6-4[8:1],1,,8,8,,2,1,3-5[8:1],8,,1,1,,
{16}7h[4:1],,5<8[8:1],4,3,2,1,,2h[4:1],,8>3[8:1],7,6,5,4,,5,6,7,8,5V72[16:3],4,3,2V84[4:1],5,,,,3h[8:1],,,,
{16}2q6[8:1],2,,5,6>3[8:1],7,8,,
{24}1,,,8,7,6,5h[8:1]/2,,,,,,
{16}4>1[8:1],4,,1,8-4[8:1],7,6,,8,,
{24}5,6,7,8/3h[8:1],,,,,,
{16}7p3[8:1],7,,4,3<6[8:1],2,1,,
{24}8,,,1,2,3,4h[8:1]/7,,,,,,
{24}8h[8:1],,,4,3,2,1h[3:1]/7,,,6,,,5h[12:1],,,2/6,3/7,4/8,5b/1b,,,,,,
{16}2b>5[8:1]/6b,,5,6,7,8,1,,1<6[8:1],,6,5,4,3,2,,
{16}2,1,3-5[8:1],8,,1,1,,7,8,6-4[8:1],1,,8,8,,
{16}2h[4:1],,4>1[8:1],5,6,7,8,,7h[4:1],,1<6[8:1],2,3,4,5,,4,3,2,1,4V27[16:3],5,6,7V15[4:1],4,,,,6h[8:1],,,,
{16}7p3[8:1],7,,4,3<6[8:1],2,1,,
{24}8,,,1,2,3,4h[8:1]/7,,,,,,
{16}5<8[8:1],5,,8,1-5[8:1],2,3,,1,,
{24}4,3,2,1/6h[8:1],,,,,,
{16}2q6[8:1],2,,5,6>3[8:1],7,8,,
{24}1,,,8,7,6,5h[8:1]/2,,,,,,
{16}1/4,,2/5,,3/6,,4/7,,5/8,6,7,8,
{32}5-1[1:2]/1,6,7,8,1,2,3,4,5b,
