&title=帝国少女
&artist=R Sound Design
&first=0
&des=SpicyChili
&lv_4=12
&lv_5=12
&inote_4=
(118)
{1},
{16}
1h[8:1],,,,,,,,
3h[8:1],,,,,,,,
5h[8:1],,,,,,,,
7h[8:1],,,,8,,,,
1h[8:1],,,,,,,,
3h[8:1],,,,,,,,
5-1[8:1],,,,3-8[8:1],,,,
7-2[8:1],,,,1-5[8:1],,,,
7h[16:3],,,6h[16:3],,,5v8[4:1],,
8,,,,1,,,,
2h[16:3],,,3h[16:3],,,4v1[4:1],,
1,,,,8,,,,
7h[16:3],,,6h[16:3],,,5v8[4:1],,
8,,,,1,,,,
2-5[8:1],,,,8-4[8:1]/2,,,,
1-5[8:1]/8-6[8:1],,,,18,,,,
1h[16:3],,,3h[16:3],,,5V31[4:1],,
6,,,,7,,,,
8h[16:3],,,6h[16:3],,,4V68[4:1],,
3,,,,2,,,,
1h[16:3],,,3h[16:3],,,5V31[4:1],,
6,,,,7,,,,
6-1[8:1],,,,4-8[8:1]/6,,,,
5-1[8:1]/4-2[8:1],,,,54,,,,
3,,6,,4,5,4,5,
2,,8h[8:1],,,,1,8,
1h[16:3],,,3,3h[16:3],,,5,
5h[16:3],,,7,1,8,,2,
,,1h[8:1],,2h[8:1],,3,8h[8:1],
,7h[8:1],,6,4,5,3,7,
1-3[16:1],,1,,5-7[16:1],,5,,
3-5[16:1],,3,,8,,7,,
6,,3,,5,4,5,4,
7,,1h[8:1],,,,8,1,
8h[16:3],,,6,6h[16:3],,,4,
4h[16:3],,,2,8,1,,7,
,,3,4,3h[8:1],,1,,
,,6,5,6h[8:1],,8,,
{12}
7,6,5,1,2,3,
84,52,47,18,,,
{16}
46,,46,,8,1,8,35,
,,35,,1,8,1,,
45,,5,,56,,6,,
67,,7,,71,,,,
1q5[8:1],,1,,8p4[8:1],,8,,
2v5[8:1],,2,,7v4[8:1],,7,,
1>4[8:1],,,,7-2[8:1],,,,
6-3[8:1],,,,5,,,,
46,,46,,8,1,8,35,
,,35,,1,8,1,,
54,,4,,43,,3,,
32,,2,,28,,,,
8p4[8:1],,8,,1q5[8:1],,1,,
7v4[8:1],,7,,2,,2,,
6,56,,3,34,,7,68,
,2,13,,8-4[8:1],,,,
{32}
2b/8b,,,,3,,,,4,,,6,5,,7,,
1,,8h[8:1],,,,2,,,,3,,5,,4,,
{24}
6,,5,5,,4,4,,3,3,,,
{16}
8,1h[8:1],,7,,6,4,5,
1v6[8:1],,1,,7-3[8:1],,7,,
5v2[8:1],,5,,7,,7,,
{24}
8,,2,2,,4,4,,6,6,,,
{16}
2V48[8:1]/7V51[8:1],,45,,,,,,
{24}
18,,2,4,,3,5,,4,6,,,
{16}
2pp4[8:1]/8,,2,,72,,6,,
{24}
54,,6,8,,7,1,,8,2,,,
{16}
6pp8[8:1]/4,,6,,36,,2,,
1h[8:3],,,,,,8,,
7v4[8:1]/2,,1,,7/2>5[8:1],,1,,
6-1[8:1]/2,,7,,6/3,,2,,
4h[4:1]/5h[8:3],,,,,,,,
3h[16:7],,,,,,,6h[16:9],
,,,,,,,,
2h[16:7],,,,,,,7h[16:9],
,,,,,,,,
1h[16:7],,,,,,,8h[16:5],
,,,,2h[4:1],,,,
3h[4:1],,,,4h[4:1],,,,
5h[4:1],,,,6h[4:1],,,,
7h[16:7],,,,,,,2h[16:9],
,,,,,,,,
6h[16:7],,,,,,,3h[16:9],
,,,,,,,,
5h[16:7],,,,,,,4h[16:5],
,,,,6,,,,
{12}
2,3,4,8,7,6,
15,47,52,81,,,
{16}
4h[16:3],,,6h[16:3],,,7>4[4:1],,
4,,5,,6,,7,,
8h[16:3],,,2h[16:3],,,3<8[4:1],,
8,,1,,2,,3,,
17,,8,1,8,,63,,
45,,3,,45,,6h[4:1],,
,,3h[4:1],,,,1h[4:1],,
,,8,,7,,6,,
5h[16:3],,,3h[16:3],,,2<5[4:1],,
5,,4,,3,,2,,
1h[16:3],,,7h[16:3],,,6>1[4:1],,
1,,8,,7,,6,,
82,,1,8,1,,36,,
54,,6,,54,,3h[4:1],,
,,6h[4:1],,,,8h[4:1],,
,,1,,2,,36,,
,,,,,,,,
,,,,,,,,
{32}
71,,,,6,,,,5,,,3,4,,2,,
8,,1h[8:1],,,,7,,,,6,,4,,5,,
{24}
3,,4,4,,5,5,,6,6,,,
{16}
1,8h[8:1],,2,,3,5,4,
8v3[8:1],,8,,2-6[8:1],,2,,
4v7[8:1],,4,,2,,2,,
{24}
1,,7,7,,5,5,,3,3,,,
{16}
7V51[8:1]/2V48[8:1],,54,,,,,,
{24}
81,,7,5,,6,4,,5,3,,,
{16}
7qq5[8:1]/1,,7,,27,,3,,
{24}
45,,3,1,,2,8,,1,7,,,
{16}
3qq1[8:1]/5,,3,,63,,7,,
8h[8:3],,,,,,1,,
2v5[8:1]/7,,8,,2/7<4[8:1],,8,,
1v3[8:1]/7,,2,,1/8,,7,,
61,,7,,8-4[8:1]/2,,1,,
{32}
2b/8b,,,,3,,,,4,,,6,5,,7,,
1,,8,,1,,7,,,,3,,5,,4,,
{24}
6,,6,5,,5,4,,4,3,,3,
{32}
8,,1h[8:1],,,,7,,,,6,,4,,5,,
1pp3[8:1],,,,1,,,,7qq5[8:1],,,,7,,,,
3v1[8:1],,,,3,,,,7,,,,7,,,,
{24}
8,,8,2,,2,4,,4,6,,,
{16}
2V85[8:1]/7V14[8:1],,45,,,,,,
45,3,1,2,8,1,7,7,
3qq1[8:1]/5,,3,,63,,7,,
81,7,5,6,4,5,3,3,
7qq5[8:1]/1,,7,,27,,3,,
4h[8:3],,,,,,5,,
6v1[8:1]/3,,4,,6/3>8[8:1],,4,,
7-4[8:1]/3,,6,,7/2,,3,,
1h[4:1]/8h[8:3],,,,,,,,
,,,,,,,,
E
&inote_5=(118)
{1},
{16}
1h[8:1],,,,,,,,
3h[8:1],,,,,,,,
5h[8:1],,,,,,,,
7h[8:1],,,,8,,,,
1h[8:1],,,,,,,,
3h[8:1],,,,,,,,
5-1[8:1],,,,3-8[8:1],,,,
7-2[8:1],,,,1-5[8:1],,,,
7h[16:3],,,6h[16:3],,,5v8[4:1],,
8,,,,1,,,,
2h[16:3],,,3h[16:3],,,4v1[4:1],,
1,,,,8,,,,
7h[16:3],,,6h[16:3],,,5v8[4:1],,
8,,,,1,,,,
2-5[8:1],,,,8-4[8:1]/2,,,,
1-5[8:1]/8-6[8:1],,,,18,,,,
1h[16:3],,,3h[16:3],,,5V31[4:1],,
6,,,,7,,,,
8h[16:3],,,6h[16:3],,,4V68[4:1],,
3,,,,2,,,,
1h[16:3],,,3h[16:3],,,5V31[4:1],,
6,,,,7,,,,
6-1[8:1],,,,4-8[8:1]/6,,,,
5-1[8:1]/4-2[8:1],,,,54,,,,
3,,6,,4,5,4,5,
2,,8h[8:1],,,,1,8,
1h[16:3],,,3,3h[16:3],,,5,
5h[16:3],,,7,1,8,,2,
,,1h[8:1],,2h[8:1],,3,8h[8:1],
,7h[8:1],,6,4,5,3,7,
1-3[16:1],,1,,5-7[16:1],,5,,
3-5[16:1],,3,,8,,7,,
6,,3,,5,4,5,4,
7,,1h[8:1],,,,8,1,
8h[16:3],,,6,6h[16:3],,,4,
4h[16:3],,,2,8,1,,7,
,,3,4,3h[8:1],,1,,
,,6,5,6h[8:1],,8,,
{12}
7,6,5,1,2,3,
84,52,47,18,,,
{16}
46,,46,,8,1,8,35,
,,35,,1,8,1,,
45,,5,,56,,6,,
67,,7,,71,,,,
1q5[8:1],,1,,8p4[8:1],,8,,
2v5[8:1],,2,,7v4[8:1],,7,,
1>4[8:1],,,,7-2[8:1],,,,
6-3[8:1],,,,5,,,,
46,,46,,8,1,8,35,
,,35,,1,8,1,,
54,,4,,43,,3,,
32,,2,,28,,,,
8p4[8:1],,8,,1q5[8:1],,1,,
7v4[8:1],,7,,2,,2,,
6,56,,3,34,,7,68,
,2,13,,8-4[8:1],,,,
{32}
2b/8b,,,,3,,,,4,,,6,5,,7,,
1,,8h[8:1],,,,2,,,,3,,5,,4,,
{16}
6>3[8:1],,3<6[8:1],,,,,,
1,,8h[8:1],,2,5,3,6,
1v6[8:1],,1,,7-3[8:1],,7,,
5v2[8:1],,5,,7,,7,,
{24}
8,,8,2,,2,4,,4,6,,,
{16}
2V48[8:1]/7V51[8:1],,45,,,,,,
{24}
18,,2,4,,3,5,,4,6,,,
{16}
4qq2[8:1]/5,,4,,64,,7,,
2<7[8:1],,7>2[8:1],,,,,,
6pp8[8:1],,6,,36,,2,,
1h[8:3],,,,,,8,,
7v4[8:1]/2,,1,,7/2>5[8:1],,1,,
6-1[8:1]/2,,7,,6/3,,2,,
4h[4:1]/5h[8:3],,,,,,,,
3h[16:7],,,,,,,6h[16:9],
,,,,,,,,
2h[16:7],,,,,,,7h[16:9],
,,,,,,,,
1h[16:7],,,,,,,8h[16:5],
,,,,2h[4:1],,,,
3h[4:1],,,,4h[4:1],,,,
5h[4:1],,,,6h[4:1],,,,
7h[16:7],,,,,,,2h[16:9],
,,,,,,,,
6h[16:7],,,,,,,3h[16:9],
,,,,,,,,
5h[16:7],,,,,,,4h[16:5],
,,,,6,,,,
{12}
2,3,4,8,7,6,
15,47,52,81,,,
{16}
4h[16:3],,,6h[16:3],,,7>4[4:1],,
4,,5,,6,,7,,
8h[16:3],,,2h[16:3],,,3<8[4:1],,
8,,1,,2,,3,,
17,,8,1,8,,63,,
45,,3,,45,,6h[4:1],,
,,3h[4:1],,,,1h[4:1],,
,,8,,7,,6,,
5h[16:3],,,3h[16:3],,,2<5[4:1],,
5,,4,,3,,2,,
1h[16:3],,,7h[16:3],,,6>1[4:1],,
1,,8,,7,,6,,
82,,1,8,1,,36,,
54,,6,,54,,3h[4:1],,
,,6h[4:1],,,,8h[4:1],,
,,1,,2,,36,,
,,,,,,,,
,,,,,,,,
{32}
71,,,,6,,,,5,,,3,4,,2,,
8,,1h[8:1],,,,7,,,,6,,4,,5,,
{16}
3<6[8:1],,6>3[8:1],,,,,,
8,,1h[8:1],,7,4,6,3,
8v3[8:1],,8,,2-6[8:1],,2,,
4v7[8:1],,4,,2,,2,,
{24}
1,,1,7,,7,5,,5,3,,,
{16}
7V51[8:1]/2V48[8:1],,54,,,,,,
{24}
81,,7,5,,6,4,,5,3,,,
{16}
5pp7[8:1]/4,,5,,35,,2,,
7>2[8:1],,2<7[8:1],,,,,,
3qq1[8:1],,3,,63,,7,,
8h[8:3],,,,,,1,,
2v5[8:1]/7,,8,,2/7<4[8:1],,8,,
1v3[8:1]/7,,2,,1/8,,7,,
61,,7,,8-4[8:1]/2,,1,,
{32}
2b/8b,,,,3,,,,4,,,6,5,,7,,
1,,8,,1,,7,,,,3,,5,,4,,
{24}
6,,6,5,,5,4,,4,3,,3,
{16}
8,1h[8:1],,7,,6,4,5,
1pp3[8:1],,1,,7qq5[8:1],,7,,
3v1[8:1],,3,,7,,7,,
{16}
46,,8,,35,,1,,
{16}
2V85[8:1]/7V14[8:1],,45,,,,,,
45,3,7,4,6,1,8,2,
3qq1[8:1]/5,,3,,63,,7,,
81,7,3,8,2,5,4,6,
7qq5[8:1]/1,,7,,27,,3,,
4h[8:3],,,,,,5,,
6v1[8:1]/3,,4,,6/3>8[8:1],,4,,
7-4[8:1]/3,,6,,7/2,,3,,
1h[4:1]/8h[8:3],,,,,,,,
,,,,,,,,
E
