&title=ΩΩPARTS
&artist=Camellia
&first=0
&des=M1LL10N PP
&lv_5=15
&inote_5=(120){1},,6>5-7>2-4>3[4:7],,6>5-7>2-4>3[4:7],
{24},,,,B8,B7,B6,B5,B4,B3,B2,B1,B8,B7,B6,B5,B4,B3,B2,B1,B8,B7,B6,B5,
{12},{48},,,E3,{12}B2,E8,E7,E6,1,{48},,,E7,{12}B6,E2,E3,E4,
6,{48},,,B3,{12}B4,E8,E1,E2,3,{48},,,E7,{12}B7,E5,E4,E3,
{4}8<5[4:1],{16},,2,3,{4}4>1[4:1],{16},,7,6,{4}5>2[4:1],2-8<7[4:1],7-4[4:1],,
1V35[4:1],7,6V82[4:1],4,3>7[4:1],5,4<2[4:1],,
3h[8:3],{16},,4,5,{4}6h[8:3],{16},,3,2,
{8}1v4[4:1],1,8,7,6<2[4:1]b,5,4,3,
3h[8:1],8h[8:1],5h[8:1],8h[8:1],2h[8:1],7h[8:1],4h[8:1],7,
8/1h[8:1],6h[8:1],3h[8:1],6h[8:1],8<2[4:1],,,7,
8-4[8:1],8h[8:1],,{16}5,6,{8}7-3[8:1],7h[8:1],,{16}4,5,
{4}6V82[4:1],2<2[4:2],6>2[4:1]b,,
{8}1h[8:1],8h[8:1],7h[8:1],6h[8:1],4h[8:1],6h[8:1],4h[8:1],8,
7/1h[8:1],3h[8:1],7h[8:1],5h[8:1],1>6[4:1],,,{16}6,7,
(100){4}8<5[4:1],5>2[4:1],(95)2<7[4:1],{8}(80)4,(70)3,
{1}(114.5)2h[4:4],(120){4}Ch[8:7],,,{8},{24}E2,E3,E4,
7,6,5,1,2,3,8,7,6,2,3,4,7,6,5,4,3,2,7,6,5,4,3,2,
{4}1/8v5-7v2[4:2],{16}3h[16:1],,4,4h[16:3],,,,,,3,8,3,
1/2,2,6,4h[16:3],,,7,7,1h[8:1],,,,,6,3,6,
4/5,5,3,7h[8:1],,,2,2,8h[8:1],,,,1,1,5,2,
3/4,4,2,6h[16:1],,3,8,8,2,,2h[8:1],,,7,4,7,
(125)4,5,3,3h[8:1],,7,8,7,1-5[8:1],,1h[8:1],,,,,,
3,4,3,2h[8:1],,4,5,5,2,,2h[8:1],,,7,8,7,
1,6,2,2,5,3,7,7,1,,1h[8:1],,,2,8,3,
6,5,7,7,4<5-7>8v2<1[4:1]b,5,3,3,{4},,
(130){8}3b/5b,4b/6b,{16}2,1,3,3,7,,7h[8:1],,,8,6,1,
2b/5b,,3b/6b,,8,1,7,7,3,,3h[8:1],,,2b/4b,,,
1b/5b,,2b/6b,,4,5,2,2,6,,6h[8:1],,,2,8,4,
3b/6b,,2b/5b,,3h[8:1]b/6h[8:1]b,,,4h[8:1]b/7h[8:1]b,,,3h[8:1]b/8h[8:1]b,,,1h[8:1]b/2h[8:1]b,,,
(135)3b/8b,,2b/7b,,8,3,6,6,4,,4h[8:1],,,6,5,7,
8b/2b,,3b/1b,,2,7,4,4,6,,6h[8:1],,,5b/7b-3[8:1],,,
,,2b-5[8:1]/7b,,1,,2b/8b,,7,,7h[8:1],,3,5,4,4,
3b/6b,,2b/5b,,1h[8:1]b/4h[8:1]b,,,1h[8:1]b/7h[8:1]b,,,1h[8:1]b/3h[8:1]b,,,1h[8:1]b/5h[8:1]b,,,
(140)2/6,,,5,2,,8,,2v4[8:1],7,,,2/6,,6,1,
{48}2/A8,E8,B7,{16},,3,{48}A7,E7,B6,{16},2,,{48}D7,A6,E6,{16}4,,,{48}1/D6,A5,D5,{16},2,8,
3/7,,,6,3,,5,,3v1[8:1],7,,,3/8,,7,2,
6,,{24}E2,E3,E4,E8,E7,E6,A1,A2,A3,7p1[8:1],6,5,4,3,2,{4}1/7,
{16}2,8,2,8,3,7,3,7,4,6,4,6,3,5,3,5,
2x,2,4,4,3,3,5x,5,4,4,6,6,2x,2,8,8,
1x,{32}1,8,7,6,5,4,3,2,1,8,7,6,5,4,3/6,5,4,3,2,1,8,7,6,5,4,3,2,1,8,7,
{8}6h[16:1],5h[16:1],4h[16:1],,8-5[16:1]b*>2q6[16:1],1/7,,,
{16}3b/7b,,1b/5b,,2,8,1,7h[8:1],,3,5h[8:1],,4,6,2,1,
3-8[8:1],,2/4,,3,,7,1,7,5,7h[8:1],,4,6,2,2,
8h[8:1],,{32}3,4,3,4,{16}2,5,1,1h[8:1],,{32}7,6,{16}5,2,8>5[4:1],3,6,6,
8,,,,7h[16:1],,7,5h[16:1],,5-1[16:1],8h[8:1],,5,7h[16:3]b,,,
(142)3b,,1b/5b,,6,4,5,2h[8:1],,8,4h[8:1],,5,3,7,8,
6-1[8:1],,7/1h[8:1],,6,,3,5,3,1,3h[8:1],,6,4,{32}8,7,6,5,
{16}4,,1,1,7,{32}3,4,3,4,{16}2,6,6,1,1,8,{32}8,7,6,5,4,3,
{16}1,8,2,6,5,7,3,4,2-5[8:1],8,3,7,2,6h[16:3]b,,,
(145)2b,,4b/8b,,7,3,5,2h[8:1],,6,4h[8:1],,5,4,7,1,
8-4[8:1],,1/7,,8,,1,7,1,3,1h[8:1],,5,2,8,8,
3h[8:1],,{32}7,8,7,8,{16}6,1,5,5h[8:1],,{32}1,2,{16}3,7,1<4[4:1],5,3,3,
1,,,,2h[16:1],,2,4h[16:1],,4-8[16:1],1h[8:1],,4,2h[16:3]b,,,
(147)6b,5,6b,3,4,3,7,5,7V51[4:1],2,4,2h[16:3],7,,,,
3,4,2,6,5,7,2,1,3,7,8,6,3,5,{32}1,2,3,4,
{16}6,4,5,2,8,1,7,5,6,2,4,3,6,4,8,8,
7h[16:1]/1h[16:1],,5,4h[16:1]/6h[16:1],,2,1h[16:1]/3h[16:1],,7,6h[16:1]/8h[16:1],,7,2,6,{32}1,2,3,4,
(150){8}1bv3[8:1]/5bv7[8:1],3b/7b,,,C,,,E2,
2bv4[8:1]/6bv8[8:1],4b/8b,,,{16}6h[8:1],,4,5,,3h[8:1]b/7h[8:1]b,,,
2h[16:1]b/8h[16:1]b,,4h[16:1]b/6h[16:1]b,,7,1,7,1,6,2,6,2,5,3,5,3,
2h[16:1]b/6h[16:1]b,,1h[16:1]b/5h[16:1]b,,4h[8:1]b/8h[8:1]b,,,2h[8:1]b/8h[8:1]b,,,6h[16:1]b/8h[16:1]b,,A5f,,A4/B4/E4,,
1bv4[8:1]/7bv4[8:1],,3b/5b,,1/7,,,,8w4[8:1],4,,4,8,,,,
6,2,,{32}2v4[16:1]/6,3/7,{16}4/8,8,2`Cf,,{32}7,6,5,4,3,2,1,8,7/2,3,4,5,6,7,8,1,
{16}2-6[8:1],,1V75[8:1]/3,,2,,1,,3v6[8:1],4,1<4[8:1],7,3,,1,,
{8}3-8[8:1],3-6[8:1]/6,3/8,3,{16}1-5[8:1],5,3b,7,1,8h[16:3]b,,,
(152)4b>6[4:1],,2h[8:1]b/6b,,{8},,3h[8:1],5h[8:1],7h[8:1],1b,
{16}B3f/E3,B5f/E5,B1f/E1,B7f/E7,{4}Ch[8:1],{32}7,6,5,4,3,2,1,8,7/2,3,4,5,6v3[8:1],7,8,1,
2<4[16:3]/6,3/7,4/8,5/1,{8}6x,2x,3x,{16}3-8[8:1],5,,5,3,7,6,5,
A1,A2,A3,A7,A6,A5,E2,E3,E4,E8,E7,E6,C,8h[16:3]b,{8},
(155)2bv5[8:1],4b/6bv3[8:1],2/8,,{16}1w5[8:1],5,3,7,{4}1,
{16}3,7,,{32}7v5[16:1]/3,6/2,{16}5/1,1,7`Cf,,{32}2,3,4,5,6,7,8,1,2/7v4[8:1],6,5,4,3v8[8:1],2,1,8,
{8}7>2[8:1]b,3<6[8:1]b,7,3,{16}7v2[8:1],8,5>8[8:1],3,{8}7,5,
{16}6h[8:1],,1v4[16:1],6/1,,1/4,,8,3-7[8:1],5,1b,7,3,6h[16:3]b,{8},
(157)2b>8[4:1],4h[8:1]b/8b,,,1h[8:1],7h[8:1],5h[8:1],3b,
{16}B2f/E3,B4f/E5,B8f/E1,B6f/E7,Ch[8:1],,,,{32}7,6,5,4,3,2,1,8,7/2,3,4,5,6,7,8,1,
{16}2h[8:1]/5h[8:1],,,3h[8:1]/6h[8:1],,,1/8,,6h[8:1]/2h[8:1],,,7h[8:1]/3h[8:1],,,8/1h[8:1],,
{32}7x,6,5,4,{24}3x,2,1,{16}8x,7,6,5,3V17[8:1],4,2h[8:1],,3,,,,
(160){8}2b>5qq4V68v1>2[4:9]/6b,3b/5b,{4},,,,,,,,,,{16}7,8,7,8,
6,,6,,4,5,4,5,3h[16:3],,,2h[16:3],,,1,,
7b/8b,,6b/1b,,D7,A6,D6,E3,A3,D4,E8,E7,E6,A1,A2,A3,
4bx/6b,,3b/7b,,7h[8:1],,1,8h[8:1],,2,1,,,3b/4b,,,
1b/5b,,2b/6b,,2h[8:1],,4,3h[8:1],,5,4h[8:1],,6,5,,,
3b/7b,,2b/6b,,1h[8:1]b/5h[8:1]b,,,3h[8:1]b/5h[8:1]b,,,7h[8:1]b/5h[8:1]b,,,1h[8:1]b/5h[8:1]b,,,
(170)2b/6b,,3b/7b,,8h[16:3],,,1h[16:3],,,2h[16:3],,,3h[8:1],,,
2b/4b,,1b/5b,,8h[16:3],,,7h[16:3],,,6h[8:1],,,5b/7b-3[8:1]b,,,
,,7b/1b-5[8:1]b,,8,,1b/6b,,7,,7h[16:3],,,1h[8:1],,,
2b/8b,,3b/7b,,4h[8:1]b/6h[8:1]b,,,4h[8:1]b/8h[8:1]b,,,4h[8:1]b/2h[8:1]b,,,4h[8:1]b/8h[8:1]b,,,
(175)7,,,4,7,,3,,7,2,,,7h[8:1]/1,,1,2,
3/7,,,6,3,,5,,3,6,,,3h[8:1]/7,,7,6,
5/3,,,2,5,,1,,5,2,,,5h[8:1]/3,,3,2,
1h[4:3],,,E8/E7/B7,,,E4/E5/A4,,,B1/B2/E2,,,Cf,,,,
(180)7,8,7,8,6,1,6,1,5,2,5,2,4,3,4x,3x,
1x,2,1,2,8,3,8,3,7x,4,7,4,{12}6,5x,5x,
{16}8,5,6,5,8,4,5,4,8,3,4,3,{32}8,7,6,5,4/8,1,2,3,
{8}4/6h[16:1],5h[16:1],4h[16:1],,8-5[8:1]b*>2q6[8:1],1/7,,,
2b/Cf,,,{16}A7,E7,B6,B5,E5,,A2,E3,E4,A4,
5,,5,,{24}E2,E3,E4,E8,E7,E6,{8}1-5[8:1]b,8,7h[4:1]/1,,
4bqq1[4:1],2b/6b,,{16}8,7,6v3<4v2[4:1],5,4,,6,,,,
5pp8[4:1],,,,,,1,2,3v6>5v7[4:1],4,5,,3,,,,
{4}4h[4:1],{24}1,8,7,6,5,4,1,8,7,6,5,4,{8}3-7[8:1],2/8,
{4}3/6h[4:1],{24}8p7[4:1],1,2,3,4,5,{16}8,,,,1,1h[16:3]b,,,
(182){8}5bpp8[4:1],7b/3b,,{16}1,2,3v6>5v7[4:1],4,5,,3,,,,
4qq1[4:1],,,,,,8,7,6v3<4v2[4:1],5,4,,6,,,,
{4}5h[4:1],{24}8,1,2,3,4,5,8,1,2,3,4,5,{8}6,{24}1,2,3,
6,7,8,1,2,3,{16}6,4,5,3,8h[8:1],,{32},7/1,6/2,5/3,{16}4,4h[16:3]bx,{8},
(185){4}5<2[4:1],2b,3>6[4:1],6b,
{8}5-7-4-8[4:1],4/6,{4}5b/3,1>6[4:1],6b,
7h[4:1],{24}8,1,2,3,4,5,8,1,2,3,4,5,{8}6-2[8:1],7/1,
{4}6/3h[4:1],{24}1q2[4:1],8,7,6,5,4,{16}1,,,,8,8h[16:3]b,,,
(187){8}4b>7[4:1],2b/6b,,6-4-8-2[4:1],6,,2,,
3-1-7-5[4:1],3,7,,8-4[8:1],8,{16}4,3,2,1,
{8}4x/8,5/6,5/6,1h[16:1]/7h[16:1],3/4,3/4,{16}2/8p7V51-3[4:4]b,7,6/2,1/5,
{1}4/8b,
(190){16}5h[16:5],,,,,4,3,2,8,7,6,5,8,1,2,3,
7,6,5,4,1,2,3,4,{24}8,7,6,4,3,2,8,7,6,4,3,2,
{8}1h[4:4],,5-8[8:1],6,5,,5-2[8:1],6,
5,,{16}1h[32:1],5h[32:1],1h[32:1],5h[32:1],2h[32:1],6h[32:1],2h[32:1],6h[32:1],3h[32:1],7h[32:1],3h[32:1],7h[32:1],
(193)4h[16:5],,,,,6,7,8,3,2,1,8,5,6,7,8,
2,3,4,5,1,8,7,6,{24}2,3,4,6,7,8,2v5[8:1],3,4,6,7,8,
{4}2,8h[4:6],{8}7h[64:1],6h[64:1],5h[64:1],2,
6h[64:1],5h[64:1],4h[64:1],1,7h[64:1],7h[64:1],2-6[8:1],,
(197){16}2h[16:5],,,,,7,6,5,4/3,2,1,7,7,6,5,4/3,
2,1,7,6,5,4/3,2,1,{24}7,6,5,3,4,5,7,6,5,3,4,5,
{8}8h[4:2],,4-1[8:1],3,4,8,8h[4:1]/4-7[8:1],3,
4,8,{16}8h[32:1],1h[32:1],8h[32:1],1h[32:1],{32}A8,B8,C,B4,A4,,,,A2,B2,C,B6,A6,,,,
(201){8}7h[4:2],,1V35[8:1],2,1,8,8h[4:1]/2V46[8:1],3,
2,1,1h[4:1]/3>8[8:1],4<7[8:1],3-7[8:1],4-8[8:1],3,4,
2-6[8:1],2,1-4[8:1],1,8-5[8:1],8,7-3[8:1],7,
{12}1,8,2,6,5,7,{2}4w8[8:1]b,
(205){1}Cf/2bV46<7V13<4V68>1V35<6V82p6[4:27]b*>3V57>8V24<5V71>2V46<7-1>2q6[4:27]b,,,,,,,,
{4}3-8[4:1],4,5-2[4:1],6,
7-4[4:1],8,1h[4:2],,
6<1[4:1],{16},,4,3,{4}2>5[4:1],{16},,7,8,
{4}1<6[4:1],6>3q8[4:2],C,,
2h[4:1],{16}4,3,4,3,{4}5h[4:1],{16}2,1,2,1,
{4}3V17[4:1],7>5[4:2],C,,
6h[8:3],{16},,4,5,{4}3h[8:3],{16},,1,2,
{8}8v5[4:1],8,1,2,(200)3-8[8:1],4,5,6,
(205)7b/1bx,6b/2b,3h[8:1],5h[8:1],4h[8:1],5h[8:1],2h[8:1],5,
3b/4b,2b/5b,6h[8:1],1-5[8:1],7h[4:1],1b,,,
8b/2b,7b/3bh[8:1],,{16}5,4,{8}6-1[8:1],6,2,{16}2,3,
{8}4b/8b,2b-6[8:1]/6b,1,2b/7-4[16:1],{16},7b/3>5[16:3],,,{4}3b/Cf,
{8}8bx,7b/3b,6,5,4h[8:1],6h[8:1],4h[8:1],2,
1b/3b,2b/8b,7-5[8:1],1,7/2,2h[4:1]b,,{16}6,5,
{8}7b,8b/1b,2b-5[8:1]/7b,,,6b<2[8:1],,,
3bV17[8:1],,,5b-1[8:1],,{16}2b-6[16:1]b,,,2b,{8},
7hx[8:1],,7h[8:1],{16}4,5,{8}3h[8:1],,3h[8:1],{16}1,2,
{8}8h[8:1],2,8h[8:1]/3,4,3h[8:1]/8,7,3h[8:1]/6,5,
6h[8:1]/2,,6h[8:1],{16}2,3,{8}4h[8:1]/6,,4h[8:1],,
7h[8:1],,7h[8:1]/E3/B3/E4,,2h[8:1]/7,,2h[8:1]/E7/B6/E6,,
8h[8:1]/2,,8h[8:1],A3/B3,8h[8:1],,8h[8:1]/A4/B4,,
3h[8:1]/8,,3h[8:1],A6/B6,3h[8:1],,3h[8:1]/A5/B5,,
6h[8:1]/3,,6h[8:1],A2/B2,6h[8:1],,6h[8:1]/A1/B1,,
{1}8<1[4:2]b*>7[4:2]b,
{16}1h[8:1]/6h[8:1],,,2h[8:1]/5h[8:1],,,4,3,5,4h[8:1],,,3/5,,3,2,
1h[8:1]/8h[8:1],,,5h[8:1]/7h[8:1],,,2h[8:1]/4h[8:1],,,3h[8:1]/6h[8:1],,,2/5,,5,6,
1h[8:1]/7h[8:1],,,3h[8:1]/5h[8:1],,,1,8,2,1h[8:1],,,2/8,,2,3,
5h[8:1]/4h[8:1],,,6h[8:1]/8h[8:1],,,1h[8:1]/3h[8:1],,,4h[8:1]/6h[8:1],,,2/8,,8,7,
6h[4:1]/Cf,,,,2,3,4,5,8,7,6,5,1,2,3,4,
7,6,5,4,3,2,1,8,7/2,3,4,5,6,7,8,1,
2,1,2,1,3,8,3,8,{32}2,3,4,5,6,7,8,1,2/6,5,4,3,2,1,8,7,
{8}6h[16:1],5h[16:1],4h[16:1],,8-5[8:1]b*>2q6[8:1],1/7,,,
{16}3,4,3,6,5,6,2h[8:1],,6,5,7,3,4,2,7h[8:1],,
3,4,1,6,5,8,1h[8:1],,6,2,7,3,8,7,6,5,
2,1,2,1,2,3,4,5,7,8,7,8,7,6,5,4,
2,5,3,6,4,7,3,8,{24}2,1,2,1,2,1,{16}2,3,4,5,
{16}6,5,6,3,4,3,7h[8:1],,3,4,2,6,5,7,2h[8:1],,
6,5,8,3,4,1,8h[8:1],,3,7,2,6,1,2,3,4,
5-1[8:1]/7,,,4,5b,,3,,2/8-4[8:1],,,7,8b,,6,,
{8}5,3/4,{32}8,7,6,5,4/8,1,2,3,{16}4h[8:1],,,5h[8:1]/3h[8:1],,,2/6,,
7,8,7,2,1,2,6h[8:1],,2,1,3,7,8,6,3h[8:1],,
7,8,5,2,1,4,5h[8:1],,2,6,3,7,4,3,2,1,
7,8,7,8,7,6,5,4,2,1,2,1,2,3,4,5,
7,4,6,3,5,2,6,1,{24}7,8,7,8,7,8,{16}7-3[8:1],1,5,3,
7b,,,,2/6,,4,5,3-8[8:1],,,4,3,,5,,
6-1[8:1],,,5,6,,4,,3-1[8:1],,,4,3-7[8:1],,5,,
{4}3b/7,{16},,E8,E7,E6,E5,E4,E3,E2,E1,E8,E7,
2,3/7bx,4,5,6/2bx,7,8,1/5bx,2,3,4/8bx,5,6/8bx,7,8bx,1,
2,,2,,6,5,7,4,8,1,7,2h[8:1],,4,3h[16:3],,
,8,1,7h[8:1],,5,6h[8:1],,3,4,2,5,1,2,3,4,
7,8,1,2,3,4,5,6,7/2,1,8,7,6,5,4,3,
2,1,3,8,2,7,1,6,{24}8-4[8:1],7,8,7,8,7,{4}Cf,
{16}5,4,5,2,1,2,7h[8:1],,2,1,3,5,4,6,2h[8:1],,
5,4,7,2,1,4,8h[8:1],,1,2,3,4,5/8,7,6,5,
2/4-8[8:1],,,5,5/4b,,6,,7/1-5[8:1],,,2,2/1b,,3,,
4,,4b/7-3[16:1]b,,,2-6[16:1]b/7b,,,8-4[16:1]b/2b,,,1-5[16:1]b/8b,,,1b,,
7h[16:1],,7h[16:1],,3,4,2,5,1,8,2,7h[8:1],,5,6h[16:3],,
,1,8,2h[8:1],,4,3h[8:1],,6,5,7,4,8,7,6,5,
2,1,8,7,6,5,4,3,2/7,8,1,2,3,4,5,6,
7,8,6,1,7,2,8,3,{24}1-5[8:1],2,1,2,1,2,{4}Cf,
{16}3-8[8:1],,,,3/4,,5,6,7-4[8:1],,,8,8/7,,1,,
2-5[8:1],,,1,1/2,,8,,7-5[8:1],,,8,8/7-3[8:1],,1,,
{4}7b/3,{16},,E2,E3,E4,E5,E6,E7,E8,E1,E2,E3,
E4/6,7,8,1,2,3,4,5,6/2,1,8,7,6,5,4,3,
6/2h[4:1],,,,{24}8,7,6,{16}4,5,{12}3,2,1,5,6,7,
{16}8-4[8:1],,,1,{8}8,2-6[8:1],2h[8:1],,E2/E3/B2,E6/E7/B6,
1v3[8:1],,{16}7,6,5,4,8,7,6,5,1,8,7,6,
2h[8:1],,4-8[8:1],3,5,,4/6,,7<1[4:1],7,1,1,{4}7b,
{16}4x,3x,2hx[8:1],,7,6,5,4,1,2,3,4,8,7,6,5,
2-5[8:1],,,1,2,,8,,7-4[8:1],,,1,7,,2,,
3h[4:1],,,,5,6,7,8,1,2,3,4,1,2,3,4,
2h[8:1],,8,1,8w4[8:1],,1/7,,8,,,,3hx[4:1],,6,7,
8x,1,8,7,8,1,8x,7,8,1,8,7,8x,2,1,2,
3,2,1x,2,3,2,1,2,3x,4,5,6,7/8x,1,2,3,
7x,8,7,6,7x,6,5,4,1x,8,1,2,1x,2,3,4,
{6}5hx[12:1]b/6hx[12:1]b,3h[12:1]b/4h[12:1]b,1h[12:1]b/8h[12:1]b,5h[12:1]b/7h[12:1]b,2h[12:1]b/4h[12:1]b,1h[12:1]b/8h[12:1]b,
{16}6,5,6,5,6,5,7x,8x,7x,8,7,8,4,3x,4x,3x,
4,3,1,2,1,2,1x,2x,8hx[8:1],,3,7h[8:1],,5,6,,
4h[8:1],,6,6h[8:1],,8,8h[8:1],,5h[16:1]b,,3,3h[16:1]b,,1,1h[16:1]b,,
B3,B2,B1,B8,B7,B6,B5,B4,B3,B2,B1,B8,5,,5,,
3b/7b,,2b/6b,,1,5,4,5,2,5,4,5,3-7[8:1],5,4-8[8:1],,
{8}3,4,2-7[8:1],2,6-3[8:1],6,1,1,
2/8,3/7,{16}8,4,5,4,7,4,5,4,6,4,5,,
{8}3>5[4:1],,7h[4:1],,,8b/4b,2/6,,
3b/5b,1b/7b,{16}2,6,5,6,3,6,5,6,4-8[8:1],6,5-1[8:1],,
{8}4,5,3-8[8:1],3,7-4[8:1],7,2,2,
7h[4:1],,{24}8,1,2,3,4,5,8,1,2,3,4,5,{8}6,7/1,
{16}6/2h[16:3],,,8,4,,3/7h[16:3],,,4V28[16:1],6h[8:1]b,,{8}4,,
1bx/5b,3b/7b,{16}E8,E7,E6,E5,E4,E3,E2,E1,E8,E7,6x,5x,
{8}4x-8[8:1],,4/6,,7-3[8:1],2-6[8:1],7-1-3-5[4:1],2,
7,,2,1,{16}8V24[8:1],6,7,6,{8}8,,
7h[4:2],,2-5[8:1],3,2-8-4[8:1],7b,7h[8:1]/2,,
{16}6h[16:3]b,,3,3h[16:3]b,,8,8h[16:3]b,,5,5h[16:3]b,,,Cf/B1/B8,,,,
2h[16:3]b,,4,4h[16:3]b,,6,6h[16:3]b,,8,8h[16:3]b,,,B2f/B3,,,,
7-3[8:1],,6/8,,7,,2,1,,5,4,,8,1,{32}7,6,5,4,
{4}Cf,{16},,E8,B8,B1,E2,C,,E6,B5,B4,E4,
(210){8}3bx-7>8V64v2[4:12]b/5bx-1<8V24v6[4:12]b,1b/7b,{4},,,{1},,
{4},,{8},1b/7b,,,
(220)2b/6b,4b/8b,3,5,2h[4:1],,6,4,
7,7,5,6,2,2,4,3,
5b-1[8:1],,3bV17[8:1],,6,6b-8-3[8:1],,4,
4b-8-2[8:1],,7,7b-3-5[8:1],,8,{16}8b,1,2,3,
(230)4h[8:1]/6h[8:1]b,,,3h[8:1]/7h[8:1],,,2h[8:1]/8h[8:1],,,1/7h[8:1],2,3,4/6,,6,7,
1h[8:1]b/8h[8:1],,,2h[8:1]/7h[8:1],,,6h[8:1]/5h[8:1],,,3h[8:1]/4h[8:1],,,2/5,,2,1,
7h[8:1]b/8h[8:1],,,1h[8:1]/6h[8:1],,,2h[8:1]/5h[8:1],,,6h[8:1]/4h[8:1],,,5,4/6,3/7,2/8,
{1}1>4q2[4:2]b*<6p8[4:2]b,
{16}6,5,6,5,7,4,7,4,8,3,8,3,1,2,1,2,
4,3,4,3,5,2,5,2,6,1,6,1,7,8,7,8,
7,,,6,,2,1,,,5,,2,1,,,4,
,2,1,,3,,4,,{32}E8,E7,E6,E5,E4,E3,E2,E1,{4}E8/Cf,
{8}1-5[8:1],1,7-3[8:1],7,2-5[8:1],2,8,{16}8,7,
{8}6-1[8:1],6,3-8[8:1],3,5-7[8:1],5,{16}4,3,2,1,
{8}8-4[8:1],8,6-3[8:1],6,1-5[8:1],1,6,{16}6/4,3/7,
2/8,,{32}8,7,6,5,1,,,,7,6,5,4,{8}2,3/5,{16}7,8,6,1,
7,6,5/3,2,{8}1-5[8:1],1,7-4[8:1],7,1,{16}1,2,
3,,6,2,5,1,4,8,3<5-7>8v5[4:1],7,3,7,3,,,,
2h[16:3],,{32}5x,6,7,8,{16}2,1,2,1,3,8,3,8,{32}3,4,5,6,7,8,1,2,
{16}3bh[8:1],,6b,2b,8bw4[8:1]b,,1b/7b,,8b`B8/Cf/B5/B4/B3,,,,6,2,7,1,
{8}8-4[8:1],8,2-5[8:1],2,6-1[8:1],6,2,{16}2,3,
{8}4-7[8:1],4,5-1[8:1],5,3-1[8:1],3,{16}4,5,6,7,
{8}8-4[8:1],8,1,1,{32}2,3,4,5,6,7,8,1,{16}2,8,3,7,
{12}3,3,3,4,4,4,5,5,5,{8}6,7/8,
{16}1/5V71[8:1],2,3,4,5b,,,,8/4V28[8:1],7,6,5,4b,,,,
2/6<2[8:1],3,4,5,6b,,,,7/3>7[8:1],6,5,4,{4}3b-5-7-1[4:2],
Cf,,{12}2,3,4,5/8-6-1-5-2-4[4:2]b,7,6,
{4}5/8,{8},6,7,8,1-5[8:1],,
1-3[8:1],8,1-5[8:1]/7,{16}6,6,1,,7,4,6<1[8:1],3,5-1[8:1],,
6-2[8:1],,5,,6-4[8:1],,3,3,6-8[8:1],,1,1,6,,,,
1,7,2,6,3h[16:1],,5,2,6,3,7h[16:1],,4,8,3,7,
2h[16:1],,6,1,5,2,4,3,5,4,6,3,4,2,7,1,
8,,7/1,,3-7[8:1],5,4<8[8:1],5,3,,4,,,,2,1,
3-7[8:1],8,4-8[8:1],7,3,,4,,1-5[8:1],7,2-6[8:1],8,1,,2,,
3,5,2,6,1h[16:1],,7,2,6,1,5h[16:1],,8,4,1,5,
2h[16:1],,6,3,7,2,8h[16:1],,,,3,4,2b/Cf,,,,
7,8,7,8,6,1,6,1,5,2,5,2,4,3,{32}7,6,5,4,
{16}1,7,1,7,2,6,2,6,3,5,3,5,{32}2h[64:1],3h[64:1],4h[64:1],5h[64:1],8h[64:1],7h[64:1],6h[64:1],5h[64:1],
{16}2,1,3,8,4,7,5,6,8,7,1,6,2,5,{32}1,2,3,4,
8h[64:1],7h[64:1],6h[64:1],5h[64:1],{16}1,8,{32}2h[64:1],3h[64:1],4h[64:1],5h[64:1],{16}8,1,{32}7h[64:1],6h[64:1],5h[64:1],4h[64:1],{16}2,1,{32}3,4,5,6,7,8,1,2,
{16}7,5,6,4,5h[32:1],3h[32:1],4h[32:1],2h[32:1],1,3,8,2,7h[32:1],1h[32:1],6h[32:1],8h[32:1],
7,5,7,5,8h[32:1],4h[32:1],8h[32:1],4h[32:1],1,3,1,3,8h[32:1],2h[32:1],8h[32:1],2h[32:1],
7h[32:1],1h[32:1],6h[32:1],4h[32:1],5h[32:1],3h[32:1],4h[32:1],2h[32:1],8h[32:1],1h[32:1],6h[32:1],8h[32:1],7h[32:1],1h[32:1],8h[32:1],3h[32:1],
{32}6h[64:1],5h[64:1],4h[64:1],3h[64:1],2h[64:1],1h[64:1],8h[64:1],7h[64:1],{48}6h[96:1]/1h[96:1],2h[96:1],3h[96:1],4h[96:1],5h[96:1],6h[96:1],7h[96:1],8h[96:1],1h[96:1],2h[96:1],3h[96:1],4h[96:1],{12}6,5,7,3,4,2,
{8}1b/7b,3b/5b,{16}7,5,6,4,5,,1,4,2,5,{8}3,
5b/7b,1b/3b,{16}8,2,1,4,5,,3b,6,5,8,1,,
7b,5,6b,4,7b,3,8,2,1,3,3b,3,3,3,3,3,
7b,7,7,7,7,7,2b,2,2,2,6b,6,6,1b,1,1,
{48}8b/1b,2b/7b,3b/6b,{16}4b/5b,8bx>2-4>3[4:24]b/1bx<7-5<6[4:24]b/Cf/B1/B2/B3/B4/B5/B6/B7/B8,
E
