&title=水手
&artist=郑智化
&first=0.01
&des_5=RE_POEM
&lv_5=14
&des=RE_POEM
&inote_5=(96.6){4},,,,
{16},,,,1x,,8,,7,,6,,5<1[4:1],,
{16}4x,3x,2x,,2>4<5[4:1],,2,,1,,8,,,,6<2[4:1],,
{16}5x,4x,3x,,3<5<6[4:1],,3,,1,,8,,,,7>3[4:1],,
{16}6x,5x,4x,,4<6[16:2],,4,,3,,3,,
{16}2,7,2,,1,8,1,7,
{16}1bh[4:1]/8b-4[8:1],,,,8<5[8:1],,2,,3/8q5[8:1],,2,,
{24}1x/8<6-4[8:1],2x,3x,
{16}4x,,8-4[8:1]*-3[8:1]/3,,2,,8>2-6[4:1]*-5-3[4:1],,,,,,,,,,,,
{16}1/7h[8:1],,{24}2,5,3,{16}6h[8:1],,5h[8:1],,8h[8:1],,{24}3,6,2,
{16}5h[8:1],,8h[8:1],,7,,16,,25,,34,,3>8[16:2]/4<7[16:2],,C,,,,,,
{16}8bh[4:1]/1b-5[8:1],,,,1>4[8:1],,7,,6/1p4[8:1],,7,,
{24}8x/1>3-5[8:1],7x,6x,
{16}5x,,1-5[8:1]*-6[8:1]/6,,7,,1<7-3[4:1]*-4-6[4:1],,,,,,,,,,,,
{16}8/2h[8:1],,{24}7,4,6,{16}3h[8:1],,4h[8:1],,1h[8:1],,{24}6,3,7,
{16}4h[8:1],,1h[8:1],,2b-6-3>6[4:6]b,,,,,,,,,,,,,,,,4xq5[4:2],,,,,,,,,,,,,,,,
{8}1-3<4[8:1]/7,,1/8-4[8:1]b,7,8/7V53[8:1],,7/6-2[8:1],,6/5p8[8:1],,4-7>8[8:1]b/5,3,2h[4:2]/4,,C,4,{32}3,4,5,6,7h[16:5],,,,C,,,,B1/E1,,,,8,7,6,5,4h[16:5]/7,,,,C,,,,A3/D3,,,,2,1,8,7,6h[16:5]/2,,,,C,,,,4-1[8:1]*-7[8:1],,,,4,,,,,,,,,,,,,,,,
{8}2-4<5[8:1]/8,,2/1q6[8:1]b,8,1/8-4[8:1],,8/7V13[8:1],6,7/6v8[8:1],,5p1[8:1]b/6,,3h[4:2]/5,,C,5,{32}4,5,6,7,8h[16:5],,,,C,,,,B2/E3,,,,2,3,4,5,6h[8:3]/8,,,,C,,,,A7/D8,,,,8,1,2,3,4h[4:1]/8,,,,C,,,,1w5[8:1],,,,1,,,,
{8},,,
{16}1/2>5[8:1],,,1,2,,1,,{32}1/2v5[8:1]b,3,4,5,
,,,,2/7-5[8:1],,,,8,,,,8v6[8:1]/7,1,2,3,4-1[8:1],,,,8-3-6[4:1],,,,4,,,,,,,,,,,,,,,,,,,,
{16}8/1-5[8:1],,,8,1,,8,,{32}8/2v5[8:1]b,3,4,5,
,,,,{8}2/7-5[8:1],8-3[8:1],7v4[8:1],8-5[8:1],7z3[4:1],8,7,,,,
{16}7/8>3[8:1],,,7,8,,7,,{32}8/2v5[8:1]b,3,4,5,
,,,,2/7-5[8:1],,,,8,,,,1v4[8:1]/7,,,,1-6[8:1],,,,1V73[4:1],,,,,,,,,,,,,,,,A5/B5,,,,,,2,,
{16}8/1-3[8:1],,,8,1,,8,,{32}8/2v5[8:1]b,3,4,5,
,,,,12,8,7,6,,,,,18,27,36,45,,,27,,27,,,,18,,,,1b,,,,,,,,
{8}1h/5h,8h/6h,
{48}86,1,2,3,4,5,6,7,8,1,2,3,45,6,7,8,1,2,3,4,5,6,7,8,
{8}B1f/E1/E2/B2/B8/E8/B7/2h[4:1],,{48}3,4,5,6,7,8,1,2,3,4,5,6,
{8}7/8bh[4:1],6,{48}7,6,5,4,3,2,1,8,7,6,5,4,
{8}3/B2f/E2/E3/B3/B1/E1/B8,,
{48}17,2,3,4,5,6,7,6,5,4,3,2,
{8}1/8hb[4:1],,{48}6,5,4,3,2,1,8,1,2,3,4,5,
{8}6/7hb[4:1],,{48}5,4,3,2,1,8,7,8,1,2,3,4,
{8}5/8bh[4:1],6,5`7,4,3,2,1`5,{16}4`1,1`3,
{48}31,4,5,6,7,8,1,2,3,4,5,6,78,1,2,3,4,5,6,7,8,1,2,3,
{8}B5f/E5/E6/B6/B4/E4/B3/5h[4:1],,{48}6,7,8,1,2,3,4,5,6,7,8,1,
{8}2/3bh[4:1],1,{48}8,7,6,5,4,3,2,1,8,7,6,5,
{8}4/B8f/E1/E8/B7/B1/E2/B2,,
{48}42,5,6,7,8,1,2,1,8,7,6,5,
{8}4/3hb[4:1],,{48}1,8,7,6,5,4,3,4,5,6,7,8,
{8}1/2hb[4:1],,{48}8,7,6,5,4,3,2,3,4,5,6,7,
{8}8/3bh[4:1],1,{48}2,3,4,5,6,7,8,1,2,3,4,5,
{8}6/1b,27,3`8,1`4,
{48}13,8,7,6,5,4,3,2,1,8,7,6,54,3,2,1,8,7,6,5,4,3,2,1,
{8}B1f/E1/E2/B2/B8/E8/B7/7h[4:1],,{48}6,5,4,3,2,1,8,7,6,5,4,3,
{8}2/1bh[4:1],3,{48}2,3,4,5,6,7,8,1,2,3,4,5,
{8}6/B7f/E8/E7/B6/B8/E1/B1,,
{48}82,7,6,5,4,3,2,3,4,5,6,7,
{8}8/1hb[4:1],,{48}3,4,5,6,7,8,1,8,7,6,5,4,
{8}3/2hb[4:1],,{48}4,5,6,7,8,1,2,1,8,7,6,5,
{8}4/1bh[4:1],3,4`2,5,6,7,8`4,{16}5`8,8`6,
{48}68,5,4,3,2,1,8,7,6,5,4,3,21,8,7,6,5,4,3,2,1,8,7,6,
{8}B5f/E5/E6/B6/B4/E4/B3/4h[4:1],,{48}3,2,1,8,7,6,5,4,3,2,1,8,
{8}7/6bh[4:1],8,{48}1,2,3,4,5,6,7,8,1,2,3,4,
{8}5/B1f/E1/E2/B2/B8/E8/B7,,
{48}57,4,3,2,1,8,7,8,1,2,3,4,
{8}5/6hb[4:1],,{48}8,1,2,3,4,5,6,5,4,3,2,1,
{8}8/7hb[4:1],,{48}1,2,3,4,5,6,7,6,5,4,3,2,
{8}1/6bh[4:1],8,{48}7,6,5,4,3,2,1,8,7,6,5,4,
{8}3/8b,72,6`1,8`5,
{48}86,1,2,3,4,5,6,7,8,1,2,3,45,6,7,8,1,2,3,4,5,6,7,8,
{8}B1f/E1/E2/B2/B8/E8/B7/2h[4:1],,{48}3,4,5,6,7,8,1,2,3,4,5,6,
{8}7/8bh[4:1],6,{48}7,6,5,4,3,2,1,8,7,6,5,4,
{8}3/2b,,
{48}17,2,3,4,5,6,7,6,5,4,3,2,
{8}1/8hb[4:1],,{48}6,5,4,3,2,1,8,1,2,3,4,5,
{8}6/7hb[4:1],,{48}5,4,3,2,1,8,7,8,1,2,3,4,
{8}5/8bh[4:1],6,5`7,4,3,2`7,1`5,{384}4b,8b,D1/D3/D5/D7,E1/E2/E3/E4/E5/E6/E7/E8,B1/B2/B3/B4/B5/B6/B7/B8,Cf,
