&title=Ground Z.E.R.O.
&artist=Kanone
&first=0
&lv_5=14+
&des_5=W.I.T.H.E.R.
&inote_5=
(160){4},,,,{48}1b-6-2-5b[4:3]/8b-3-7-4b[4:3],
2/7,3/6,4/5,{1},{16},,{24},{4}3/6,
{8}6,5,4,3,
{4}3h[4:1],4,{8}3,4,5,6,
{4}6h[4:1]/B5,{8}4,B7,1,7,3,5h[8:3],
{4}4,3,{8}7,{16}3,4,,6,{8}5,
{4}3b/6b,5/6h[8:1],{8}4/6h[8:1],4,3/6h[8:1],3,
{4}5h[8:1]/4h[8:1],5h[8:1]/3h[8:1],{8}4/3h[8:1],4,5/3h[8:1],5,
{4}4h[8:1]/5h[8:1],4h[8:1]/6h[8:1],{8}5/7h[8:1],5,6/4,{16}3,5,
{8}3,{16}6,4,{8}6,2/7,{16}1,8,1,8,{8}2/7,3/6,
{4}4b/5b-8[8:1],{8}5/4,3,{16}2,1,{8}2,{16}7-4[8:1],8,{8}6,
7,1,2,3,{16}6,5,{8}6,{16}3-8[8:1],4,{8}2,
3/7,7,6,6,{16}4,5,{8}3,{16}6,5,{8}7,
{16}1,7,3,5,2,8,4,6,1-5[8:1],7,3,5,{4}1b,
{16}3,4,{8}3,{16}6,5,{8}6,{16}2-5[8:1],1,{8}3,{4}2b,
{16}6,5,{8}6,{16}3,4,{8}3,{16}7-4[8:1],8,{8}6,{4}7b,
{16}4,5,{8}3,{16}5,4,{8}6,{16}3-8[8:1],4,{8}2,{4}3b,
{16}2,1,,3,{8}4,6/5,{16}4/3,,,6/7,,1/8,{8}1/8,
{16}2,4,3,4,2,5,4,5,3,6,5,6,{4}2b,
{16}7,5,6,5,7,4,5,4,6,3,4,3,{4}7b,
{16}2,4,3,5,4,6,5,6,4,5,3,4,{4}2b,
{8}1/8<7<6>5[8:1],7/2,{16}8/1,2,3,4,7,2,6,3,{4}5b/4b,
{16}3,4,3,4,2,1,2,1,3,4,2,1,2b,4,3,5,
4,6,5,7,8,6,5,7,8,7,5,6,4b,5,3,4,
2,1,3,8,2,1,3,8,2,1,4,7,1b,2,8,3,
7,4,6,5,7,4,6-2[8:1]/5-1[8:1],5/6,{8}6/5,5x/6x,{16},,4/7,4/7,
3,8,2,7,1,6,2,7,3,8,3,8,3b,8,4,1,
2,1,3,8,1,8,2,7,8,7,1,7,8b,7,5,6,
{8}4,5/3,6,5/7,{16}1,1,3,3,5,5,7,7,
{32}1,2,3,4,5,6,7,8,1,2,3,4,5,6,7,8,{4}1h[8:1],{48}8,7,6,5,4,3,2,1,8,7,6,5,
{4}4b-8[8:1]/3b-7[8:1],4/3,{8}6,3,5h[8:1],4,
5-8[8:1]/4-1[8:1],3/6,{4}5/4,{8}2,7,3h[8:1],5,
7-3[8:1],6/8,{4}7,{8}2,4,3h[8:1],5,
2-6[8:1],1/3,{4}2,{8}5,4,{16}5,3h[16:1]/6h[16:1],,,{4}1/8v5[8:1],
{8}1/8,2,{16}3h[8:3],,,7,,,{8}6,
{4}6h[4:1],{8}7,5,6,6,4,4,
5,5,3,3,2,2,1s5b[4:1]*-5b[4:1],1,
{2}1b,{24}4,5,4,5,{12}4,3/6,{48},,{16}7/2,7/2,
{4}1b/8b-6[8:1],{8}1/8-4[8:1],1,2/8<5[8:1],2,3/8p4[8:1],3,
2/8,2,3-6[8:1]/7-2[8:1],5/1,{4}3b/7b/Cf,{8}5b-8[8:1]/4b-1[8:1],2b/7b,
{4}4b/5b,{8}8/1b>4[8:1],8,{16}8/1,7,{8}6,7-3[8:1]/1-5[8:1],5/3,
{4}1b/7/Cf,{8}1/8,6/3,{16}3b/4b,2/5,,6b/5b,{8}4/7,{32}8,1,8,1,
{4}8b-4[8:1],{8}1/8-6[8:1],1,2/8,3,8v5[8:1]/4v1[8:1],2/6,
{4}8b/4b/Cf,{8}1/8,3/6,{48}1b/8b,2/7,3/6,4/5,,,,,,,,,{8}1b-5[8:1]/2b-6[8:1],7b/4b,
{4}1b/2b/E2f,{8}4/3,1,{16}6,5/7,,,2,3/4,4/3,7,
8,5,,2/1,{8}3/8,6b/5b,{16}3b,2/4,,7b,{8}6/8,{16}1b,8b,
{4}1bw5[8:1],1,{8}7,5,{16}4<7[8:1],3,,,{4}4/3-8[8:1],
3,{8}2,4,5,7,
{16}6,5,,5,{8}4,2,{2}2p4[1:1]/6p8[1:1],
{8},,,,,,,,1,
1,6,6,4/2h[8:1],4,5/3h[8:1],5,
6/4h[8:1],6,7/5h[8:1],7,8/6h[8:1],8,4,4,
{16}1,7,3,5,2,8,4,6,{32}1,8,1,8,1,8,1,8,{48}2,3,4,7,6,5,E2,B2,B3,E4,E8,B7,
B6,{96}E6,Cf,{4},,,{16},,,{64},{192},{16}1,
8,2,7,3,6,4>1[8:1],5,4,5h[8:3],{8}4b,{24},8,7,6,4,3,
{8}2b<7[8:1],{16}8,8,{8}2>5[8:1],{16}4,4,{8}2,8,{16}7,3x,7,3x,
{8}8b>3[8:1],{16}4,4,{8}8,4h[16:9],{16}5,6,7,8,1,2,3,5,
{8}6b-8[8:1],{16}1-5[8:1],1,{8}6,1x,{16}8,3,8,3,{8}7b/4b,{16}8,1,
7,2,6,3,5,4,5<8[8:1],4,5,4h[16:7],{8}5b,{24},1,2,3,5,6,
{8}7b>2[8:1],{16}1,1,{8}7<4[8:1],{16}5,5,{8}7,1,{16}8,6x,8,6x,
{8}1b<6[8:1],{16}5,5,{8}1,5h[16:9],{16}4,3,2,1,8,7,6,4,
3b-8[8:1],,,4,{8}3,6,{16}2,4,,7,{8}5,{16}3,4,
2,5,1,6,8,7,8>3[8:1],7,8,7h[16:7],{8}8b,{24},4,5,6,8,1,
{16}2b>5[8:1],,,6,{8}2-6[8:1],7,{16}2,8,{8}8,{16}2,1,2,1,
3,4,,6,{8}5,7/4,{16}4/8,3/7,2/6,1/5,8-4[8:1],7,6,5,
{8}4/8b,{16}2,2,{8}3,6,{16}4,5,{8}4,3b/6b,{16}6,5,
7,4,8,3,1,2,1<6[8:1],2,1,2h[16:7],{8}1b,{24},5,4,3,1,8,
{16}7b<4[8:1],,,3,{8}7-3[8:1],2,{16}7,1,{8}1,{16}7,5,7,5,
{8}6b/4b,{16}3,4,{8}3,5/2,{16}1/5,2/6,7/3,8/4,1-5[8:1],2,3,4,
1b/5,,,3b/7b-3[16:1],,,{8}7b/2b-6[16:1],{16},2b/8b-4[16:1],,,{8}8b/3b,{16}2b,2b,
{8}6/3,7,{16}6/5,6/5,,7,{8}7h[8:1],2,6,{16}1-4[8:1],4,
{8}4,{16}1-6[8:1],6,{8}6,{16}1,4,{8}4,2/7,{24}1,2,3,8,7,6,
{8}5b/4b,2,{16}3/4,4/3,,2,{8}2h[8:1],5,6/3,{16}8-5[8:1],5,
{8}5,8-3[8:1],4,{16}8,4,{8}4,3/6,{24}8,7,6,1,2,3,
{16}5b/4bh[16:1],,,7,{8}5,1/8,{16}2,4,,6,{8}3,2/7,
{24}2,3,4,7,6,5,1,2,3,8,7,6,2,3,4,1,2,3,7,6,5,8,7,6,
{16}4b/5b,,,6/3,{8}6/3,{16}2,2,4,3,5,4,{8}6,{16}7,5,
{4}7h[8:1],{32}1,8,1,8,1,8,1,8,{12}1,2/7,7/3,4/8,7/4,6/4,
{8}5/4,3/6,{24}8/1,2/7,6/3,4/5,,,{8}2b/7b,2,{16}3,8,3,7,
{8}3>2<1<8[8:1],{16}1,1,{8}3<4<5<6[8:1],{16}5,5,{8}3,1,{24}4,3,2,5,6,7,
{8}1b/8b,2,{16}7,3,{8}7h[8:1],2,7,{16}6,1,6,2,
{8}6<7>8>1[8:1],{16}8,8,{8}6>5>4>3[8:1],{16}4,4,{8}6,8,{24}5,6,7,4,3,2,
{16}8b/1bh[16:1],,,6,{8}8,7/2,{16}3,1,,4,{8}5,3/6,
{24}1,2,3,4,8,7,6,{48}5,1,{96},{32}2,3,4,5,6,7,8,1/5,4,3,2,1,8,7,6,{48}5/1,2,3,4,5,6,7,8,1,
{16}2b/6b,,,6/5,{8}7/4,8/1,{16}2,2,5,5,4,4,7,7,
{32}1,8,1,8,1,8,1,8,{48}2,3,4,5,6,7,8,1,2,3,{24}4,{12}8b-4[16:1],8b,8b,Cf,,,{1}6bpp4[2:3]/2bpp8[2:3],
,1pp4[1:1]/8qq5[1:1],
{8},,,,1b/8b,{16}3,2b/4b,{8}6,5b/7b,
{48}1b/8b,2/7,6/3,5/4,
E
&lv_6=14+
&des_6=BLOCK O.N.E.
&inote_6=
(160){4},,,,{48}1b/8b,
2/7,6/3,4v1[8:1]/5-8[8:1],{4},{16},,{24},{2}7z3[4:1],
{4}1bs5[4:1],7,{8}7h[8:1],4,6h[8:1],2,
{4}8z4[4:1],2,{8}2h[8:1],5,3h[8:1],7,
{4}1V35[4:1],7,{8}7h[8:1],4,6h[8:1],2,
{4}8V64[4:1],2,{8}2h[8:1],5,{16}3-1[8:1],4,,,{4}6b,
{8}1/8-4[8:1],1,{4}8/1h[8:1],{8}2/7-5[8:1],2,
{4}7/2h[8:1],{8}3/5,3,{4}3h[8:1]/5<3[4:3],{8}4,4,
{4}4h[8:1],{8}5,5,{4}5h[8:1],{8}3/6,{16}5,4,
{8}6,{16}4,5,{8}3,2/6,{16}1,7,{8}1,8-4[8:1],8,
{4}8b/1b,{8}2/4-6[8:1],3,{4}3h[8:1],{8}7/5-3[8:1],6,
{4}6h[8:1],{8}1/3-8[8:1],2,{4}2h[8:1],{8}8/6,7,
7/5,5,6/4,6,5/3,3,2/4,4,
{16}1,1,4,4,2,2,5,5,4>1[8:1],4,6,6,{4}4b,
{16}7,8,{8}7,{16}7,5,{8}7,{16}2-6[8:1],1,3,8,{4}2b,
{16}2,1,{8}2,{16}2,4,{8}2,{16}7-3[8:1],8,6,1,{4}7b,
{16}6,5,{8}6,{16}6,8,{8}6,{16}3-7[8:1],4,2,5,{4}3b,
{16}6h[16:1],8,,7h[16:1],{8}1,8h[16:1],{16}1-5[8:1],,,1/7,,6,{8}6,
{16}6,4,{8}6,{16}6,8,{8}6,{16}1-5[8:1],5,3,7,{4}1b,
{16}3,5,{8}3,{16}3,1,{8}3,{16}8-4[8:1],4,6,2,{4}8b,
{16}7,5,{8}7,{16}7,1,{8}7,{16}2-6[8:1],6,4,8,{4}2b,
{8}7/5,8,{16}8,1,7,2,6,3,5,4,{4}5b/4b,
{16}3,3,{8}5h[16:1],{16}4,4,{8}6h[16:1],{16}3,5,3,5,{8}6b/2b,1/7,
{16}1,7,1,5,1,7,1,5,1-5[8:1],7,1,5,{8}1b,7,
{16}6,5,{8}7h[16:1],{16}3,4,{8}2h[16:1],{16}7,5,{8}8h[16:1],{16}2,4,{8}1h[16:1],
{16}7h[16:1],1,,6h[16:1],{8}2,{16}3-1[8:1]/5-7[8:1],5/3,{8}3/5,3/5,{16},,1,1,
6b,6,{8}4h[16:1],{16}5,5,{8}3h[16:1],{16}6,4,6,4,{8}3b/7b,8/2,
{16}8,2,8,4,8,2,8,4,8-4[8:1],2,8,4,{8}8b,2,
3/5,3/5,4/6,6/4,{16}8,2,6,4,7,1,5,3,
{32}6,7,8,1,2,3,4,5,6,7,8,1,2,3,4,5,{4}6h[4:1]/2h[8:1],{48}8,1,2,3,4,5,6,7,8,1,2,3,
{4}4b-1[8:1]/5b-8[8:1],4/5,{8}7-4[8:1],1,2-7[8:1],3h[8:1],
,,{4}4/5,{8}2-5[8:1],8,7-2[8:1],6h[8:1],
,,{4}5/4,{8}6-1[8:1],4,3-6[8:1],2h[8:1],
,,{4}1/8,{8}2,7,{16}3-8[8:1]/6-1[8:1],5/4,,,{4}3/6>6[4:5],
{8}2,2,{4}2h[8:1],{8}4,4,
{4}4h[8:1],{8}6q4[1:1],5,{4}5h[8:1],{8}3,3,
{4}3h[8:1],{8}2,2,{4}2h[8:1],{8}1,1,
{24}1h[24:13],,,,,,,,,,,,,8,2/7,3/6,{12}4/5,2/7,{48},,{16}1,1,
{4}8b-4[8:1],{8}8/2-6[8:1],3,2/7-3[8:1],8,7/1-5[8:1],2,
1/6-2[8:1],7,2>5[8:1]/6<1[8:1],1,{4}2b/6b,{8}8/2,7/5,
1-5[8:1],2,1/6>3[8:1],7,6/2-6[8:1],1,2>5[8:1]/6<1[8:1],7,
{4}2b/6b,{8}1/7,2/4,{16}6,6/5,,3,{8}2/4,{24}8,1,8,
{4}1b>4[8:1],{8}1/7-4[8:1],5,7/3-8[8:1],1,3/6-8[8:1],4,
6/2>5[8:1],1,2-7[8:1]/6-3[8:1],7,{4}2b/6b,{8}1/5,3/7,
8bV64[8:1],7,8/2-6[8:1],3,2/5,7,1/8,{32}2,7,2,7,
{8}2,{16}3/4,3/4,,6/5,{8}5/6,{16}3/4,2/4,,6/5,{8}7/5,{24}8,1,8,
{4}1bw5[8:1],1,{8}7h[8:1],4,{16}6-8[8:1],5,,,{4}3,
2/1-5[8:1],{8}2,2,3,3,
{16}3,4,,4,{8}5,6/3,{2}2qq5[1:1]/7pp4[1:1],
{8},,,,,,,,1/3,
3,3/4,4,4/5,5,5/6,6,
8/6,8,1/7,7,2/8,2,3/1,1,
{16}2,1,4,7,5,6,3,8,{32}2,3,4,5,6,7,8,1,{48}2/7,6,5,4,3,2,1,8,7,6,5,4,
{4}3bs7[4:1]/2bV46[4:1],{24},,,,,,,,,,,,1,2,3,7,6,5,
{16}2b,4,3,5,4,6,1,5,2,4,3,4,{24}2,5,2,5,1,6,
{8}8b-5[8:1],7,2/8-3[8:1],1,6/8,7,{24}2,1,2,1,3,8,
{16}4h[16:1],7,,5h[16:1],{8}6,2/4,{24}1,8,1,8,2,7,{32}3,6,3,6,4,5,4,5,
{8}4b-8[8:1],3/6,4/5,6,{16}1/7,1/7,,2/8,{8}2/8,{32}1,2,3,4,
{16}7b,5,6,4,5,3,8,4,7,5,6,5,{24}7,4,7,4,8,3,
{8}1b-4[8:1],2,7/1-6[8:1],8,3/1,2,{24}7,8,7,8,6,1,
{16}5h[16:1],2,,4h[16:1],{8}3,7/5,{24}8,1,8,1,7,2,{32}6,3,6,3,5,4,5,4,
{16}5h[8:1],,,5h[8:1]/3h[8:1],,,{8}2/6,{16}7,5/8,,2,{8}1/4,{32}8,7,6,5,
{16}2b,4,2,3,2,1,2,8,5,8,3,8,{24}2,7,2,7,1,6,
{8}8b<5[8:1],7,2/8>3[8:1],1,6/8,7,{24}4,6,4,6,3,7,
{16}2h[16:1],8,,1h[16:1],{8}7,3/5,{24}3,6,3,6,2,7,{32}1,8,1,8,1,8,1,8,
{8}1b-5[8:1],2/7,1/8,7,{16}6/4,4/6,,3/5,{8}3/5,{32}1,2,3,4,
{16}7b,5,7,6,7,8,7,1,4,1,6,1,{24}7,2,7,2,8,3,
{8}1b>4[8:1],2,7/1<6[8:1],8,3/1,2,{24}5,3,5,3,6,2,
{16}7h[16:1],1,,8h[16:1],{8}2,6/4,{24}6,3,6,3,7,2,{32}8,1,8,1,8,1,8,1,
{48}7b,6,5,4,{12}3,{48},1b,2,3,4,5,,,,,8b,7,6,5,{24}4,{48},,,1b,2,3,{16}4,{48}8b,7,6,{8}5h[8:1],{16}4,4,
{8}6b/3b,1/8,{16}2/7-4[8:1],2/7,,3,{8}3/7-1[8:1],2,7/3,{16}4,4,
{8}8/4-1[8:1],3,4/7-3[8:1],{16}8,8,{8}7/2,1,{24}1,2,3,4/5,6,7,
{8}8b,1/8,{16}7/2-5[8:1],7/2,,6,{8}6/2-8[8:1],7,2/6,{16}5,5,
{8}1/5-8[8:1],6,5/2-6[8:1],{16}1,1,{8}2/7,8,{24}8,7,6,5/4,3,2,
{16}1h[16:1],7,,2h[16:1],{8}8,3/7,{16}5h[16:1],3,,6h[16:1],{8}4,3/7,
{24}1/5,2,3,4/7h,5,6,7,8,5/1,4,3,2,1/5h,8,7,6,1/5,2,3/7,6,5,2,3,4,
{4}5b/6h[8:1],{8}2/8,{24}4,5,3,{16}4,2,{8}2,5h[8:1],{16}1,1,
{4}1w5[8:1]*-5[8:1],1b,{12}1/7,1/7,2/7,2/7-3[8:1],7/3,7/4,
{8}4/7,1,{32}1,2,3,4,5,6,7,8,{8}5b/1b,4/5,4/2,{16}1,1,
{8}1/8p4[8:1],7,8/2>6[8:1],{16}3,3,{8}2/6,8,{24}7,4,7,4,6,5,
{8}6,7/4,{32}8,7,6,5,4,3,2,1,{8}8b/4b,5/4,5/7,{16}8,8,
{8}8/1q5[8:1],2,1/7<3[8:1],{16}6,6,{8}7/3,1,{24}2,5,2,5,3,4,
{16}3h[16:1],5,,4h[16:1],{8}6,5/7,{16}7h[16:1],1,,8h[16:1],{8}2,3/7,
{24}3,5,3,6,4,6,2,5,2,7,4,7,2,4,3,7,5,6,2,4,3,{96}6,,,5,,,{32}6,5,
{16}6b,,,1/8,{8}3/6,2/7,{16}3/4,2/5,,6/5,{8}4/7,1/8,
{32}2,8,2,8,2,8,2,8,1h[48:1],1h[64:1],1h[64:1],1h[64:1],1h[64:1],1h[64:1],1h[64:1],1h[64:1],{12}2bv5[8:1]/8bv5[8:1],3b/7b,6b/4b,8b/2b,{24},,,,{8}2/7,
2/7,{16}3,4,,4,{8}5,{16}7,8,{8}7,6/1,
2/7,2/7,{16}6,5,,5,{8}4,{16}2,1,{8}2,3/8,
1/7<4[4:1],1/7,{16}1,1,,2,{8}2,{16}3,4,{8}3,2/5,
8/2,2/8,{16}8,8,,7,{8}6b/5b,{16}2,3b/4b,,8,{8}5b/6b,
{48}1b/8b,7/2,3/6,4q5[16:19]/5p4[16:19],
E
