&title=CAND¥¥¥LAND feat. LIZ (Pa's Lam System Remix)
&artist=tofubeats
&first=0.61
&des_5=¥¥¥uuki☆
&lv_5=14
&des=¥¥¥uuki☆
&inote_5=(160){8}2h[4:4]/4h[4:1],,,,4,,5,,6<1[4:3],,,,,,,,,,E2,B2,B3,,5-8[4:1],,4h[4:2],,,,1,,8,,7-4[4:3],,,,,,2,,3-8[4:3],,,,,,7,,6-1[8:5]*-2[8:5],,,,,,,,8<5b[4:2],,1,,2,,3,,4b,,5-8[8:1],,6/5,,,,5,,4-1[8:1],,4/3,,2,,1,,8-5[8:1],,8/7,,7h[4:3],,{16}4,,,4,,,4,,{8}4b,,6,,5,,4<7[8:1],,4/3,,2,,1,,8>3[8:1],,8/7,6,5h[8:2],,,E4,E3,E2,E1,E8,E7,E6,4>5[8:6],,6xh[8:1],,7xh[8:1],,8xh[8:1],,Cf,,4h[4:3],,5,6,7,,8h[8:2],,1>4[4:1],,8,7,6,5,4h[4:1],,5h[4:1],,4-1[8:1],3,4/6,,7h[4:1],,8<5[4:1],,1,2,3,4,5h[4:1],,3h[4:1],,4<7[8:1],5,4/3,,2h[4:1],,1>4[4:1],,5,6,7,8,1h[4:1],,2h[4:1],,1<6[8:1],8,1/2,,5h[4:1],,4>1b[4:1],,8,7,6,5,Cf,,,,E1/E4/E6/,,,,E6/E8/C/E2/E4,,D3/D7,,E2/E8/C/E5,,,,7/8,6,7/8,6,8/7-4[8:1],6,7/8,,1/2,3,1/2-5[8:1],3,1/2,,C,,7/8,6,7h[8:1]/8h[8:1],,2/1,3,2h[8:1]/1h[8:1],,4/3,2,4h[8:1]/3h[8:1],,5/6,7,5h[8:1]/6h[8:1],,{16}5,6,4,7,3,8,2,1,8,1x,7,1x,6,1x,5,1x,{32}5bx,4x,3,,1bx,8x,7,,5bx,4x,3,,1bx-5b[280#6:1],8x,7,,{8}1bw5[8:1],,1,,4x-8[8:1]/6x-2[8:1],,{64}4/6,Cf,,,,,,,{16},,1,5,2,6,3,7,4h[16:6],,,,8bx,8,8,,,,1h[8:1]/2h[8:1],,,,7h[8:1]/8h[8:1],,,,5h[8:1]/6h[8:1],,,5h[8:1]/6h[8:1],,,5h[16:1]/6h[16:1],,5b/6b,,,{32},C,{8}B3h[8:1],,8<5[8:1],,1,1>4[4:1],5,6,7,8,1w5[8:1],,1b,,{16}8,4,7,3,6,2,5h[16:6],,,,1bx,1,1,,,,8h[8:1]/7h[8:1],,,,2h[8:1]/1h[8:1],,,,{16}3h[8:6],,4x,4,4,,5,,5,,6,,6,,7x-4[8:1],,1,,7x-2[8:1],,3,,7x-4[8:1],,1,,7x-2[8:1],,3,,7,,4w8[8:1],,,,4b,,,,{16}4,8,3,7,2,6,1h[16:8],,,,{8}5,5-3[8:1]*-7[8:1],,5-2[8:1]*-8[8:1],,5,,1,1,{16}8h[8:2],,2x,2,2,7h[8:1],,3,6h[8:1],,4,5,{8}4qq1[4:2],,E6,B6,B7,E8,A8,,8w4[8:1],,8b,,2h[8:1]/6h[8:1],,1,8h[8:4],,{16}6x,6,6,,,,{8}E1/E6,E2/E5,E3/E4,,{16}4h[8:1]/5h[8:1],,,4h[8:1]/5h[8:1],,,4h[16:1]/5h[16:1],,{8}4b/5b,,7,6,5>1[4:1],,1<5[4:1],,5-8[6:1],,1-4b[8:1],,{4}1b/Cf,,,,,,,,,,,,,,,,{2}6<6<2qq8qq6qq4qq2b[4:12],,,,,,,{8}8,7,6,5,Cf,,,,E1/E4/E6/,,,,E6/E8/C/E2/E4,,D3/D7,,E2/E8/C/E5,,,,7/8,6,7/8,6,8/7-4[8:1],6,7/8,,1/2,3,1/2-5[8:1],3,1/2,,C,,7/8,6,7h[8:1]/8h[8:1],,2/1,3,2h[8:1]/1h[8:1],,4/3,2,4h[8:1]/3h[8:1],,5/6,7,5h[8:1]/6h[8:1],,2/1,3,2/1,3,1/2-5[8:1],3,2/1,,8/7,6,8/7-4[8:1],6,8/7,,B3,,C,,,,E1/E4/E6/,,,,E6/E8/C/E2/E4,,D3/D7,,E2/E8/C/E5,,,,7/8,6,7/8,1,8-3[8:1]/7-4[8:1],6,7/8,,1/2,3,1-6[8:1]/2-5[8:1],8,1/2,,C,,7/8,6/1,7h[8:1]/8h[8:1],,2/1,3/8,2h[8:1]/1h[8:1],,4/3,2/5,4h[8:1]/3h[8:1],,5/6,7/4,5h[8:1]/6h[8:1],,2/1,3,2/1,8,1-6[8:1]/2-5[8:1],3,2/1,,8/7,6,8-3[8:1]/7-4[8:1],1,8/7,,B5/B4,,4,5,6,7,{16}8h[16:3],,,2,8-5[8:1],,,,,,1,,2,,3,,4h[8:1],,{16}6x,1x,3x,5x,8x,2x,,,8,,7,,6,,5h[16:3],,,3,5,,2,,2h[16:3],,,8,2,,1-7-5[4:1]*-3-5[4:1],,,,,,,,,,{8}8,1,2,3,{16}4h[16:3],,,6,4-1[8:1],,,,,,5,,6,,7,,8h[8:1],,{16}2x,5x,7x,1x,4x,6x,,,4,,3,,2,,1h[16:3],,,7,1,,6,,6h[16:3],,,4,6,,5,,5w1b[8:1],,5,,{64}5b,Cf,,,{16},,,7-5[8:1],,,8-4[120#10:1],7x,,,1,8x,,,1>4[190#8:1]*<6[190#8:1],,,1,,,,5,,5h[8:2],,,,{16}2,4,3,8,6,7,1,,2-4[8:1],,,1-5[120#10:1],2x,,,8,1x,,,8<5[190#8:1]*>3[190#8:1],,,8,,,,4,,4h[8:2],,,,8,,1/7,,2/6,,3/5,,3-1[8:1],,,4-8[120#10:1],3x,,,5,4x,,,5<8[190#8:1]*>2[190#8:1],,,5,,,,1,,1h[8:2],,,,8,6,7,2,4,3,5,,6-8[8:1],,,5-1[120#10:1],6x,,,4,5x,,,4>1[190#8:1]*<7[190#8:1],,,4,,,,8,,8h[8:2],,1,,2-6[8:1]*-5[8:1],,,,2b,,,,7-4[8:1],,,,7/8,,,,1-5[8:1],,1,,1/2,,,,8,7,1,6,8,7,1h[16:1],,6,5,7,4,Ch[8:1],,,,2x,8h[16:1],2,,3x,7h[16:1],3,,4x,6h[16:1],4,,3x,5h[16:1],3,,2x,7,2,4,2,7,2bh[16:1],,6x,4,6,2,6bh[16:2],,,,4-1[8:1],,,,4/5,,,,6-2[8:1],,6,,6/5,,,,3,4,3,2,3,4,3h[16:1],,6,7,6,5,Ch[8:1],,,,7x,5h[16:1],7,,8x,6h[16:1],8,,1x,7h[16:1],1,,8x,2h[16:1],8,,7x,5,6,2,4,3,6bh[16:1],,1x,3,2,7,5bh[16:2],,,,{4}8-6-4-2-8<8[4:14],,,,,,,,,,,,,,,,2pp5[4:2],,,,8q5[4:2],,,,4-8-2[4:2],,,,6q4[4:2],,,,{8}8h[4:4],,1,,E2,B2,B3,,2-4[8:1],,7,,5-1[8:1],6,6,,,,8,7,6,,4,3,2,1,5-8[8:2],,5/2h[4:1],,,,,,8h[4:1],,1h[4:4],,7,7,7,,5,5,5,2,2h[4:1],,,,1h[8:1],2h[8:1],3h[8:1],4h[8:1],5h[8:1],6h[8:1],7h[8:1],8h[8:1],1h[8:1],2h[8:1],3w7[8:1],,3b,,{16}1h[16:2]/2h[16:2],,,1h[16:2]/2h[16:2],,,1h[16:1]/2h[16:1],,2xpp5[80#16:3]/1xh[8:1],,5x,,1x/5x,,{32}1bx/5bx,8x/4x,7x/3x,6xpp1b[95#4:1]/2x,{4},,,,{16}8h[16:2]/7h[16:2],,,8h[16:2]/7h[16:2],,,8h[16:1]/7h[16:1],,7xqq4[80#16:3]/8xh[8:1],,4x,,8x/4x,,{32}8bx/4bx,1x/5x,2x/6x,3xqq8b[95#4:1]/7x,{4},,,,{8}7/8,6,7h[8:1]/8h[8:1],,2/1,3,2h[8:1]/1h[8:1],,4/3,2,4h[8:1]/3h[8:1],,5/6,7,5h[8:1]/6h[8:1],,{16}4,5,3,6,2,7,1,8,1,8,2,7,3,6,4,5,{32}3x/5bx,2/6bx,1/7bx,8x,7x,6,5,4,3/5bx,2/6bx,1/7bx,8x,7x,6,5,4,{16}3w7[8:1],,,,3x,,,,1xh[8:1],,8,1xh[8:1],,8,1xh[8:1],,8,,7/2,,8qq5[4:3]/1pp4[4:3],,{32}8x/1x,7/2,3/6,4/5,{4},,,,{16}4xh[8:1],,5,4xh[8:1],,5,4xh[8:1],,5,,6/3,,5v8<5[4:3]/4v1>4[4:3],,{32}5x/4x,6/3,2/7,1/8,{4},,,,{8}7/8,6/1,7h[8:1]/8h[8:1],,2/1,3/8,2h[8:1]/1h[8:1],,4/3,2/5,4h[8:1]/3h[8:1],,5/6,7/4,5h[8:1]/6h[8:1],,2/1,3,2/1,8,1-6[8:1]/2-5[8:1],3,2/1,,8/7,6,8-3[8:1]/7-4[8:1],1,8/7,,C/B3/B6,,8h[8:1],,{32}2x,B2,,,6x,B6,,,3x,B3,,,7x,B7,,,1x,B1,,,{16}2,4,2,,7,5,7,,4,1,4,,8h[8:1],,7h[8:1],,6h[8:1],,5h[8:1],,,,{32}3,B3,,,7,B7,,,2,B2,,,6,B6,,,4,B4,,,{16}3,1,3,,6,8,6,,1,4,1,,5h[8:1],,6h[8:1],,7h[8:1],,8h[8:1],,,,{32}6x,7,,,2x,3,,,7x,8,,,3x,4,,,8x,1,,,{16}2-5b[300#16:3],7,2,,6-3b[300#16:3],8,6,,2-5b[300#16:3],7,2,,8h[16:1],,7h[16:1],,6h[16:1],,5h[8:1],,,,{32}7x,6,,,3x,2,,,6x,5,,,2x,1,,,5x,4,,,{16}3-8b[300#16:3],6,3,,7-2b[300#16:3],5,7,,3-8b[300#16:3],6,3,,5h[16:1],,6h[16:1],,7h[16:1],,Cf,,,,,,,,1h[8:8],,,,,,B8,B7,B6,,B2,B3,B4,,B1,C,B5,,2,,3,,4,,5h[4:2],,,,,,,,6h[8:8],,,,,,B7,B8,B1,,B5,B4,B3,,B6,C,B2,,7,,8,,1,,2h[4:2],,,,,,,,3h[8:8],,,,,,B4,B5,B6,,B2,B1,B8,,B3,C,B7,,4,,5,,6,,7h[4:2],,,,,,,,8h[8:8],,,,,,B1,B2,B3,,B7,B6,B5,,B8,C,B4,B5,B6,B7,B8,B1,B2,B3,B4/1b,
