&title=Antithese
&artist=Blacklolita
&first=0
&des=Youters
&lv_5=14
&inote_5=(172){1},
{32}8b<1[4:6]/4b,7h/3h,2`6,1/5,{8}4h[8:3],,,,,{4},8h[32:1],,6h[32:1],,
8<1[4:6]/4h[32:1],,3h[32:1],,1h[32:1],,7h[32:1],,
5s1[4:6],,3h[32:1],,1h[32:1],,7h[32:1],,
5p2[4:6],,3h[32:1],,1h[32:1],,7h[32:1],,
{8}5h[32:1]/7,,6,4,5/3h[32:1],2,4,,1h[32:1]/3,,2,8,1/7h[32:1],6,8,,
{8}5h[32:1]/7,,6,4,5/3h[32:1],2,4,,1h[32:1]/3,,2,8,1/7h[32:1],6,8h[4:1],,
{8}4h[32:1],,3,5,4/6h[32:1],7,5,,8h[32:1]/6,,7,1,8/2h[32:1],3,1h[4:1],,
{8}5h[32:1],,6,4,5/3h[32:1],2,4,,
{4}1h[8:4]/3h[8:2],,{16}3,2,1,8,7,6,5,4,
{16}1/3,,7,5,6,,4,,34,,1,,5/6<2[8:1],,8,,4b,,,,3,,25,,4V61[4:1],,8,,4,,1,,
{16}2,,3,4,2,,5,,65,,8,,4/3>7[8:1],,1,,5b,,,,6,,7-4[8:1]/4<3[8:2],,8,,7b/4b,,,,,,
{16}7,,3,4,2,,6,,75,,8,,4/2V84[4:1],,1,,5b,,,,6,,7,,5>7[4:1],,1,,5,,7,,
{16}6,,5,2,4,,3h[8:1],,6h[8:1],,8,,5h[8:1],,7,,
6h[8:1],,2,4,3h[8:1],,4,4,{8}1b-5[8:1],8b-4[8:1],1b,8b,
{16}3,,7,8,6,,2,,31,,5,,6/7-4[8:1],,4-8[8:1],,7b/2h[4:1],,,,,,3,,1-5[8:1],,3-8[8:1],,1,,3,,
{16}7,,2,1,3,,7,,68,,4,,3/2-5[8:1],,5-1[8:1],,2b/7h[4:1],,,,,,6-1[8:1]*<5[4:1],,5,,6b,,,,,,
{16}3,,7,8,6,,2,,31,,5,,6/7-4[8:1],,4V61[4:1],,7b/2h[4:1],,,,,,3,,4-8[8:1],,8^3[8:1],,4,,7,,
{16}6,,5,2,4,,3h[8:1],,6h[8:1],,1,,5h[8:1],,8,,
7^4[8:1],,3,3,7,,1h[8:1],,3,2,1,8,37,26,15,48,
{16}7bq4[4:1]/3h[8:2],,,,,,5h[8:3],,,,,,4,5,3,5,
2^7[4:1],,,,,,6h[8:3],,,,,,7,6,5,6,
4p8[4:1],,,,,,7h[8:3],,,,,,8,7,6,7,
5p7[4:1],,,6,,,6,,5h[8:1],,,,84,15,26,37,
{16}8bq5[4:1]/4h[8:2],,,,,,4h[8:3],,,,,,5,4,6,4,
7^2[4:1],,,,,,3h[8:3],,,,,,2,3,4,3,
5q1[4:1],,,,,,2h[8:3],,,,,,1,2,3,2,
4<2[4:1],,,3,,,3,,4v3[8:1],,5v6[8:1],,,,,,
{16}2h[8:1],,,,2h[8:1]/6,,8,,2,8,4,6,2,8,4,6,
{16}3h[8:1],,,,3h[8:1]/7q5[8:1],,5V31[4:1],,6h[4:1],,,,,,,,
{16}68,,8h[8:1],,4,,24,,2,1,3,4,2,1,3,4,
{16}2,,8h[8:1],,4,,6h[8:1]/4,,5,4,3,2,5,6,7,8,
{16}2b,4,3,5,4,6,2b,4,3,5,4,6,2b,4,3,5,
3b,5,4,6,5,7,3b,5,4,6,5,7,3b,5,4,6,
2b,4,3,5,4,6,2b,4,3,5,4,6,2b,4,3,5,
1b,4,2,5,3,6,1b,4,2,5,3,6,2b,7,3,8,
{4}4h[4:3]/1b,2,2,2<4[4:3],3,3,3,2<4[4:3],3,3,3,2<4[4:3],3,3,3,2h[8:1],
{8}13,2,24,3,35,4,46,5,75,6,64,5,53,4,42,5,
{16}8,7,8,7,1,6,1,6,2,5,2,5,3,4,3,4,
2h[4:2]/5b,,,,,,,,
4,3,2,1,48,37,26,15,
{16}8b-4[8:1]/4,,,5,8b,,7,,6b^1[8:1],,,5,6b,,3,,2b-5[8:1],,,4,2b,,6,,8b-5[8:1],,,,8b/4,,3,2,
1b-5[8:1]/4,,,6,1b,,7,,3b^8[8:1],,,8,3b,,6,,7b-4[8:1],,,8,7b,,2,,1b>5[8:1],,,,5,6,7,8,
{16}1b-5[8:1],,,4,1b,,3,,2b-7[8:1],,,4,2b,,3,,8b^3[8:1],,,4,8b^5[8:1],,6,,8b-4[8:1],,,,4/8b,,5,6,
{16}7h[8:3],,,1b,,,6b,,8b/3b,,,1b/5b,,,7b/4b,,6b-1[16:1],,,2b-5[16:1],,,8b,,8h[8:1],,,,48,37,26,15,
{16}8b-4[8:1]/4,,5,5,8b,,7,,6b^1[8:1],,5,5,6b,,3,,2b-5[8:1],,3,4,2b,,6,7,8b-4[8:1],,,,8b/4,,3,2,
1b-5[8:1],,8,6,1b,,7,,3b^8[8:1],,4,8,3b,,7,,6b,5,6,5,7,6,7,6,8h[8:1],,,,15,84,37,26,
{16}5/1b-5[8:1],,7,7,1b,,8,,6b-3[8:1],,8,8,6b,,7,,4b^7[8:1],,,8,4b^1[8:1],,2,,4b-7[8:1],,,,4b,,1,2,
{16}3b-8[16:1],,,3b/7b-4[16:1],,,7b/1-5[16:1],,1b,,,6b-1[16:1],,,2b-5[16:1]/6b,,2b,,7,7,4,6,3V51[4:1],5,2b,,1-6[8:1]/3b,,6b<4[4:8],,4b,,
{4}5h[8:5],,,5<1[8:1],,{8},1,1,8,7,6,
{16}5,,5,4,6v7[8:1],,7-4[8:1],,4V62[4:1],,3,,2V85[4:1],,1,,5bV37[4:1],,,,3,,2>8[8:2],,1,,2h[8:3],,,,,,
{16}1,,4,5,3v2[8:1],,2-5[8:1],,5V37[4:1],,6,,7V14[4:1],,8,,4bV62[4:1],,,,6,,7V15[4:1],,8,,7,,2,,3,,
{16}4,,6,5,6,,47,,8-3[8:1],,5-1[8:1],,8,,5,,
7h[8:1],,2,2,5^8[8:1],,5p1[8:1],8,5v8[8:1],,5^2[8:1],,5,,5,,
{16}7,,1,4,3,,5,,75,,8,,4/3>8[8:1],,1,,5b,,6,,7,,84,,5V38[4:1],,1,,5,,8,,
{16}7,,6,5,7,,4,,24,,1,,5/6<2[8:1],,8,,4b,,,,3,,2v5[8:1]/5>6[8:2],,1,,2b/5b,,,,,,
{16}2,,6,5,7,,3,,24,,1,,5/7V15[4:1],,8,,4b,,,,3,,2,,4<2[4:1],,8,,4,,2,,
{16}3,,5,6,5,,47,,25,,18,,56,,23,,4b,2,5,3,6,4,7,5,{24}8/4b,1,2,3/7b,4,5,6/2b,7,8,1/5b,2,3,
{1}4/1b-5[5.375#196:1],,
{8}4h[32:1],,3,5,6h[32:1],7,5,,8h[32:1],,7,1,2h[32:1],3,1,,
{8}4h[32:1],,3,5,6h[32:1],7,5,,8h[32:1],,7,1,2h[32:1],3,1h[8:1],,
{8}5h[32:1],,6,4,3h[32:1],2,4,,1h[32:1],,2,8,7h[32:1],6,8h[4:1],,
{1}1b,,
