&title=かすかなはな - Kasuka na Hana (A Faint Flower)
&artist=キタニタツヤ,BABYMETAL
&first=0.03
&des=Kanipoi
&lv_5=13
&inote_1=(184)
{1}1,1,1,1,1,1,1,1,1,1,1,1,1,1,1,1,1,1,1,1,
{16},,,,,,,,1,,1,,1,,1,,1,,1,,1,,1,,
1,1,1,1,1,,1,,1,,1,,1,,1,,
&inote_5=(184)
{1},6<5[4:11],
{2}5h[4:1],6h[4:1],7h[1:1],
{4},,,,
{4}8-4[8:1],3-8[8:1],7,1-5[8:1],6-1[8:1],2,{8}8,7,26,,
{4}2^5[8:1],6-1[8:1],2,7^4[8:1],3-8[8:1],7,{8}6,2/8b,2b/8,,
{4}4-8[8:1],7-4[8:1],3,5-1[8:1],2-5[8:1],6,{8}4,3,62,,
{8}3^8[8:1],,7-4[8:1],,3,,6^1[8:1],,2-5[8:1],,6,,3,3,{16}5,2,5,2,
{1}5<4[8:13],{8},,,,,,,6pp1[8:7],
{1},2-5[2:1],
{1}1>8[8:13],{8},,,,,,,2pp5[8:7],
{1},6^1[4:1]*^3[4:1],
{16}1-5[8:1],,,,18,,,,6,,6h[4:1],,,,4,,3,,2,,1h[4:1]/5,,6,,8,,1/5h[4:1],,,,3,,
2-6[8:1]/5,,,,27,,,,8,,8h[4:1],,,,5,,4,,3,,6h[4:1]/2,,3,,4,,2h[4:1]/6,,,,7,,
8-4[8:1],,,,81,,,,3,,3h[4:1],,,,5,,6,,7,,8h[4:1]/4,,3,,1,,8/4h[4:1],,,,6,,
7-3[8:1]/4,,,,72,,,,1,,1h[4:1],,,,5,,24,,3,,57,,6,,3,4,2,5,1,,78,,1b/6b,,,,,,3b/4b,,,,,,
{4}2qq5[4:3],6,6,7,7,
{8}4b/8b,,,5b/6b,,,7qq4[4:3],,4
,,4,,3,,,,
25,,2,,2,,2,,2/B6/B5,,2,,7/B4/B3,,7,,3/B5/E5,,3,,3,,3,,35,,5<4[2:1],,54,,,,
1v6[4:1],,,,7h[8:3],,,,3-5[8:1],3,6-2[8:1]*-8[8:1],,6,,,,7h[2:1]/1^4[8:1],,,,5h[2:1],,,,8,7,4,3,62,7,1/8h[1:1],,
A2,E3,E4,C,E8,E7,A6,,1pp2[2:1]*qq8[2:1],,,,,,,,
{8}7-4[8:1]/3-8[8:1],,37,,1x,2,35,6,7-5[8:1]/8-5[8:1],,,,4-1[8:1]/3-1[8:1],,,,
8w4[8:1],,8,,3x,2,17,6,2-5[8:1]/5-8[8:1],,,,7-4[8:1]/4-1[8:1],,,,
8-4[8:1]/5,,7,,8-4[8:1]/5-2[8:1],1,,,8-4[8:1]/5,,7,,8-4[8:1]/5-2[8:1],1,,,8-4[8:1]/5,,7,,8-4[8:1]/5-2[8:1],1,,,
{16}16,,7,,7,,,,4,5,3h[8:1],,8,1,7,,
{8}2-5[8:1]/6-1[8:1],,62,,8x,7,64,3,2-4[8:1]/1-4[8:1],,,,5-8[8:1]/6-8[8:1],,,,
1w5[8:1],,1,,6x,7,82,3,7-4[8:1]/4-1[8:1],,,,2-5[8:1]/5-8[8:1],,,,
1-5[8:1]/4,,2,,1-5[8:1]/4-7[8:1],8,,,1-5[8:1]/4,,2,,1-5[8:1]/4-7[8:1],8,,,1-5[8:1]/4,,2,,1-5[8:1]/4-7[8:1],8,,,
{16}1/4h[4:1],,,,7,5,6h[8:1],,3,4,2h[8:1],,8,1,7,2,
{8}6^1[8:1],5,4,3^6[8:1],2,1,8^3[8:1],7,6,5^8[8:1],4,3,2^5[8:1]*q6[8:1],1,,,
3^8[8:1],4,5,6^3[8:1],7,8,1^6[8:1],2,3
,4^1[8:1],5,6,7,8,
{16}1,7,2,6,
{8}3-5[8:1],,3/7-4[8:1],,7/1-5[8:1],,18,,
{16}34,,5,2,6^4[8:1],1,7x/8x,,1^6[8:1]*^4[8:1],,,,1bx,,,,
{8}8-4[8:1],8,3-8[8:1],3,7,,1-5[8:1],1,6-1[8:1],6,2,,{8}8,7,26,,
{8}2^5[8:1],2,6-1[8:1],6,2,,7^4[8:1],7,3-8[8:1],3,7,,{8}6,2/8b,2b/8,,
{8}4-8[8:1],4,7-4[8:1],7,3,,5-1[8:1],5,2-5[8:1],2,6,,{8}4,3,62,,
{8}3^8[8:1],3,7-4[8:1],7,3,,6^1[8:1],6,2-5[8:1],2,6,,47,1b/2,1/2b,1b/2,
&inote_6=(184)
{1},6<5[4:11],
{2}5h[4:1],6h[4:1],7h[1:1],
{4},,,,
{4}8-4[8:1],3-8[8:1],7,1-5[8:1],6-1[8:1],2,{8}8,7,26,,
{4}2^5[8:1],6-1[8:1],2,7^4[8:1],3-8[8:1],7,{8}6,28,28,,
{4}4-8[8:1],7-4[8:1],3,5-1[8:1],2-5[8:1],6,{8}4,3,62,,
{8}3^8[8:1],,7-4[8:1],,3,,6^1[8:1],,2-5[8:1],,6,,3,3,{16}5,2,5,2,
{1}5<4[8:13],{8},,,,,,,6pp1[8:7],
{1},2-5[2:1],
{1}1>8[8:13],{8},,,,,,,2pp5[8:7],
{1},6^1[4:1]*^3[4:1],
{16}1-5[8:1],,,,18,,,,6,,6h[4:1],,,,4,,3,,2,,1h[4:1]/5,,6,,8,,1/5h[4:1],,,,4,,
2-6[8:1]/6,,,,27,,,,8,,8h[4:1],,,,5,,4,,3,,6h[4:1]/2,,3,,4,,2h[4:1]/6,,,,7,,
8-4[8:1],,,,81,,,,3,,3h[4:1],,,,5,,6,,7,,8h[4:1]/4,,3,,1,,8/4h[4:1],,,,5,,
7-3[8:1]/4,,,,72,,,,1,,1h[4:1],,,,5,,24,,3,,57,,6,,3,4,2,5,1,,78,,1b/6b,,,,,,3b/4b,,,,,,
{4}2qq5[4:3],6,6,7,7,
{8}4b/8b,,,5b/6b,,,7qq4[4:3],,4,,4,,3,,3,,
25,,2,,2,,2,,2/B6/B5,,2,,7/B4/B3,,7,,3/B5/E5,,3,,3,,3,,35,,5<4[2:1],,54,,,,
1v6[4:1],,,,7h[8:3],,,4,5,5,3pp4[4:1]*qq2[4:1],,3,,,,7h[2:1]/5^2[8:1],,,,1h[2:1],,,,4,5,2,3,47,6,5/4h[1:1],,
A6,E7,E8,C,E4,E3,A2,,1pp2[2:1]*qq8[2:1],,,,,,,,
{8}1w5[8:1],,1,,6x,7,82,3,7-4[8:1]/4-8[8:1],,,,2-5[8:1]/5-1[8:1],,,,
7-4[8:1]/3-8[8:1],,37,,1x,2,35,6,7-5[8:1]/8-5[8:1],,,,4-1[8:1]/3-1[8:1],,,,
1-5[8:1]/6,,8,,1-5[8:1]/4-2[8:1],3,,,1-5[8:1]/6,,8,,1-5[8:1]/4-2[8:1],3,,,1-5[8:1]/6,,8,,1-5[8:1]/4-2[8:1],3,,,
{16}16,,7,,7,,,,4,6,3,,5,2,6,,
{8}8w4[8:1],,8,,3x,2,17,6,2-5[8:1]/5-1[8:1],,,,7-4[8:1]/4-8[8:1],,,,
2-5[8:1]/6-1[8:1],,62,,8x,7,64,3,2-4[8:1]/1-4[8:1],,,,5-8[8:1]/6-8[8:1],,,,
8-4[8:1]/3,,1,,8-4[8:1]/5-7[8:1],6,,,8-4[8:1]/3,,1,,8-4[8:1]/5-7[8:1],6,,,8-4[8:1]/3,,1,,8-4[8:1]/5-7[8:1],6,,,
