&title=Old Memory
&artist=市川淳
&first=-0.5
&lv_5=11
&des=To Soar
&inote_5=
(85){4},E4,E5,E6,
D5,D6,E5,D4,
,E7,E5,E3,
D5,A3/E4,E5,A6/E6,
,E6,E5,E4,
D5,A3,E5,A6,
,E2h[2:1],,E6h[2:1],
,4bw8[4:5],,,,,,,,{8}2,
3,4,5,{4}6p5[2:1],
,3h[8:1],2h[8:1],1h[4:1],
,{8}6h[16:1],6h[16:1],5h[16:1],5h[16:1],{4}4h[4:1],
3-1[8:1],7-3[8:1],1-5[8:1],5h[4:1],
,{8}7,6,5,4,{4}3q4[2:1],
,6h[8:1],7h[8:1],8h[4:1],
,{8}3h[16:1],3h[16:1],4h[16:1],4h[16:1],{4}5-8[8:1],
1-4[8:1],6>3[2:1],,,,{8}1,
1h[8:1],7,5h[8:1],{4}3pp2[2:1],
,6pp1b[2:1],,,,{8}8,
8h[8:1],2,4h[8:1],{4}6qq7[2:1],
,8pp3b[2:1],,,,{8}6,
6h[8:1],4,2h[8:1],{4}8-4[8:1],
8,{8}5/3,2,1/8,7,{4}6h[4:1]/4h[4:1],
,{8}1h[16:1],2h[16:1],3h[16:1],4h[16:1],5h[16:1],6h[16:1],
7h[16:1],8h[16:1],{4}1b>5[2:1]*<5[2:1],,,,5bw1b[4:3],
,,,,,{8}2b/6,
3,
4-8b[8:1],5,{4}6bh[8:1],{8}7,5,{4}6h[8:1]/4h[8:1],
5h[8:1]/3h[8:1],4h[4:1]/2>6b[8:1],,{8}8h[8:1],5h[8:1],
6h[8:1],2h[8:1],{4}4h[4:1],3b-1b[8:1],7-3b[8:1],
2-6b[8:1],4w8b[8:1],,{8}7b/3,6,
5-1b[8:1],4,{4}3bh[8:1],{8}2,4,{4}3h[8:1]/5h[8:1],
4h[8:1]/6h[8:1],5h[4:1]/7b<3b[8:1],,{8}2/6,2/6,
3/5,5/3,{4}4h[4:1],,4bpp4<7[2:3]*qq4>1[2:3],
,,,,,,,{8}D7,
D6,
D5,D4,{4}D3,Ch[8:1],{8}E4,E5,
{1}E6,
E
