&title=花桥
&artist=回春丹
&first=-0.96
&des=Moufute
&lv_5=14
&des_5=Moufute
&inote_5=
(120){4},{1},,,,{4},,{48}1/8x,
2x/7x,3x/6x,4x/5x,,,,,,,,,{4}7/5xh[8:1],
3/5xh[8:1],7/5xh[4:1],C,
2/4xh[8:1],6/4xh[8:1],{2}4xh[4:1]/2-6[16:1],
{4}7/5h[4:1],4,2/4h[4:1],5,
{8}7/5h[2:1],6x,4x,3x,{2}2xw6[12:1],
{8}1-4[16:1],{16}4,4,{8}1x,7x/5,{4}8x/6-2[16:1],2x,
{32}2,3x,4x,5/6,,,,,2,3x,4x,5/6,,,,,2,3x,4,6-2[16:1]/5x-3[16:1],{4},{16},,{24}1-5[16:1],
8x,{12}7x,{24},,{8}7-4[16:1],6,{24}1-5b[16:1],2x,{12}3x,{24},,{8}7-4b[16:1],8,
4>1[8:1],1<6[32:3],{32}1xh[32:3],,,,,2x,3x,4x,{2}5xw1[12:1],
{8}1xh[32:3],8xh[32:3],1xh[32:3],8xh[32:3],6h[32:3],4h[8:1],{4}3-5[16:1],
{8}7/3-1[16:1],8,7/3<3b[4:1],6,{4}3/7xh[4:1],A4f/B4/E5/D5/D4/E4,
{24}8-4[16:1],1x,{12}2x,{24},,{8}2-5[16:1],3,{24}8-4b[16:1],7x,{12}6x,{24},,{8}2-5b[16:1],1,
5<8[8:1],8>3[32:3],{32}8xh[32:3],,,,,7x,6x,5x,{2}4xw8b[12:1],
{1}2/6s2[4:7],
{4},,,,,4-1[4:1],
{8},5-8[4:1],,,4-1[4:1],
,,5-8[4:1],,,{4}1x,
{8}D6h[4:3]/2-7[0.5##1.25],,,E7,B6,B5,E5,,
D4h[4:3]/7x-2[0.5##1.25],,,E3,B3,B4,E5,,
D7h[4:3]/1x-4[0.5##1.25]*-4[0.5##1.25],,,E6,B6,B7,E8,,
E2,A8,B4/B3,B7/B6,B1,E6,{4}Cf/B2/B3/8xw4[16:1],
8x>4[8:1],4x<8[8:1]*>8[8:1],{8},,1xqq8[8:1],1x>5[8:1],
{4}5x<1[8:1],1x<1<5[8:3],{16}5xh[4:1],{48},,,,,,,,,,,,,,,,,,4x,3x,2x,
{4}1<5[8:1],5xV71[8:1],1x<5>1[4:1],1x<1<5b[8:3],
{8}5bx,1bx,{16}5bxh[4:1],{48},,,,,,4x,3x,2x,{2}1pp3[16:1]*qq7[16:1],
{4}7/1w5[16:1],1<5[12:1],3/1>5[32:3],{32}1,,,,,6x,7x,8x,
1x,2x,3x,4x,5x,6x,7x,8x,{4}1<1[0.5##0.75]*-5[0.5##0.25],{2}1b,
{4}8-4[16:1],{8}5-1[16:1],6,{4}8-4b[16:1],{8}5-1b[16:1],6,
{32},8x,7x,6x,5x,4x,3x,2x,{4}1q5>2[16:3]*p5<8[16:3],{32}1b,Cf,,,,,,,{4}1xw5[16:1],
1x<5[8:1],5x<1[8:1]*>1[8:1],5,{8}8xpp1[8:1],8x<4[8:1],
{4}4x>8[8:1],8x>8>4[8:3],{16}4xh[4:1],{48},,,,,,,,,,,,,,,,,,5x,6x,7x,
{4}8>4[8:1],4xV28[8:1],8x>4<8[4:1],8x>8>4b[8:3],
{8}4bx,8bx,{16}4bxh[32:7],{48},,,,,,5x,6x,7x,{2}8-5[16:1]*-3[16:1],
{4}2/8w4[16:1],8>4[12:1],6/8<4[32:3],{32}8,,,,,3x,2x,1x,
8x,7x,6x,5x,4x,3x,2x,1x,{4}8>8[0.5##0.75]*-4[0.5##0.25],{24}8b,,,,,,,,,,,,{4}1-5[16:1],
{8}4-8[16:1],3,{4}1-5b[16:1],{8}4-8b[16:1],3,
{32},1x,2x,3x,4x,5x,6x,7x,{4}8p4<7[16:3]*q4>1[16:3],{16}8b,Cf,,,,,,,{8}4,
4,4,5,{4}4,{8}4/B2,4,
,4,4,4,5xh,4,{4}4b/B2,
{8}5/E8,5,5,4xh,{4}5,{8}5/E8,5,
,5,5,5,4xh,5,{4}5bxh[16:3]/1bxh[16:3],
{8}3h[24:11],7h[3:1],{48},,,,,,,,,,,,2x/6x,1x/5x,{4},{16},,,{48},{8}1xh[24:11],
5xh[3:1],{48},,,,,,,,,,,,2x/6x,3x/7x,{4},{16},,,{48},{4}4xh[16:3]/8xh[16:3],
{32}3x/7x,2x/6x,{16}1xh[8:1]/5xh[8:1],{32},,,,6x/2x,7x/3x,{16}8xh[8:1]/4xh[8:1],{32},,,,3x/7x,2x/6x,{16}1xh[8:1]/5xh[8:1],,,{8}8bx,
8bx,8bxs4[8:1],8bx,{2}8bx,
{32}4bx/8bx,3x/7x,2x/6x,1x/5x,{8}8xh[16:13]/4xh[16:13],{4},,,{32}8bx/4bx,
1x/5x,2x/6x,3x/7x,{8}4xh[16:13]/8xh[16:13],{4},,,{48}4bx/8bx,
3x/7x,2x/6x,1x/5x,,,,,,,,,1bx/5bx,2x/6x,3x/7x,4x/8x,,,,,,,,,4bx/8bx,7x/3,2x/6x,1x/5x,,,,,,,,,1bx/5bx,2x/6x,3x/7x,4xh[12:1]/8xh[12:1],,,,,,,,,{8}3bxh[16:1]/7bxh[16:1],
2bxh[16:1]/6bxh[16:1],4bxh[16:1]/8bxh[16:1],2bxh[16:1]/6bxh[16:1],{4}8b-2[16:1]/4b-6[16:1],8w4[16:1],
8>4[8:1],8/4x<8[8:1]*>8[8:1],4,{8}1xqq8[8:1],1x>5[8:1],
{4}5x<1[8:1],1x<1<5[8:3],{16}5xh[4:1],{48},,,,,,,,,,,,,,,,,,4x,3x,2x,
{4}5/1<5[8:1],1/5V71[8:1],5/1<5>1[4:1],5/1x<1<5b[8:3],
{8}5bx,1b,{16}5bx,{48},,,,,,4x/8bx,3x/7bx,2x/6bx,{2}5bxpp7b[16:1]/1pp3[16:1],
{4}7b/1bw5[16:1],1<5[12:1],3/1>5[32:3],{32}1,,,,,6x,7x,8x,
1x/5x,2x,3x,4x,5x,6x,7x,8x,{4}5x/1x<1[0.5##0.75]*-5[0.5##0.25],{2}1b,
{32}8-4[16:1],7,{16}6,,,{8}5-1[16:1],7,{32}8-4b[16:1],7x,{16}6x,,,{8}5-1b[16:1],7,
{32},8,7x,6,5,4,3,2,{4}1q5>2[16:3]*p5<8[16:3],{32}1b,Cf,,,,,,,{4}1xw5[16:1],
1x-7-5[48:5],1/5<1[8:1]*>1[8:1],5bx,{8}8xpp1[8:1],8x<4[8:1],
{4}4x>8[8:1],8x>8>4[8:3],{16}4xh[4:1],{48},,,,,,,,,,,,,,,,,,5x,6x,7x,
{4}4/8>4[8:1],8/4V28[8:1],4/8>4<8[4:1],4/8>8>4b[8:3],
{8}4bx,8b,{16}4bx,{48},,,,,,5x/1bx,6x/2bx,7x/3bx,{2}4bxqq2b[16:1]/8qq6[16:1],
{4}2bx/8bxw4[16:1],8>4[12:1],6bx/8bx<4[32:3],{32}8,,,,,3,2,1,
8/4bxh,7,6,5,4,3,2,1,{4}4bxh/8x>8[0.5##0.75]*-4[0.5##0.25],{24}8b,,{4},{16},,{64},,{96},{32}1-5[16:1],
2,{16}3,,,{8}4b-8[16:1],2,{32}1-5b[16:1],2,{16}3,,,{8}4b-8b[16:1],2,
{32},1x,2,3,4,5,6,7,8bxw4[16:1]*-4[16:1],1,2,3,{8}4,{32}8b,Cf,
E
