&title=Dive In Music
&artist=lapix feat.水槽
&first=0.48
&des=D1ve 1n Luna
&lv_5=14
&des_5=D1ve 1n Luna
&inote_5=
(138){4},,,,{64}4x/5x<4b[4:15],
E5f,B7/C/B3,E1,{1},{4},,,{16},,,{8}B2h[2:1]/B3h[2:1]/E3h[2:1],
,,,,,,Cf,
,,,,,,,,,2-4-1-5[8:5],
{4}2h[8:5],{8},,,,,7-5-8-4[8:5],
{4}7h[2:1],{8},,,,7<1[8:5],
7,,,,,,,{2}7p5[8:3],
{16}E1,E2,E3,E4,{4}A7/E7/B7,
{8}2h[8:1],4,5/3,{16}7,5,,4,{8}6,{4}5h[8:1]/3h[8:1],
{8}7h[8:1],5,4/6,{16}2,4,,5,{8}3,{4}6h[8:1]/4h[8:1],
{8}2-4-6[4:1],5x,7x,8,8-6-4[4:1],5x,3x,2,
1>4[16:3],1,8,7-5[8:1],,4,3,2,
2h[8:1],3h[8:1],4h[8:1],5h[8:1],{4}7-4[8:1]*-3[8:1],7,
{8}2h[8:1],1h[8:1],8h[8:1],7h[8:1],{4}5-1[8:1]*-2[8:1],5,
{8}8,7/5,4-7[8:1],3,4/2pp5[8:3],1,8,7,
{2}7h[2:1],{16}E2,E6/A6/D6,D4/A4/E4,A8/D8/E8,{4}E5fh[4:1],
{2}8<3[2:1],1xh[8:5],
{8},4,{16},5/2,,,{8}4b-8[8:1]/3b-8[8:1],7x,,,{2}6p5[2:1],
4h[2:1],
{8},6/4,{16},5/3,,,{8}2bh[8:1],{16}4x,3x,{24}A5,A6,A7,A8,,,{4}1xh[8:1],
7xh[8:1]/5xh[8:1],7xh[8:1]/5xh[8:1],6xh[8:1]/4xh[16:3],
5xh[8:1]/3xh[8:1],5xh[8:1]/3xh[16:3],4xh[8:1]/2xh[8:1],C,
{8}5/2>5[8:1],1,2,7,{16}8,5,6,1,4,3,7,2,
{8}E8h[4:3],E4h[8:5],E7,E3,{32},,,,,,,,D7/D3,E6/E2,{16}D1/D5,,,{4}8bxh[8:1]/4bxh[8:1],
{16}4,{32}4,5,{8}6h[8:1],{32}2,3,{16}4h[8:1],{32},,E1,E8,{8}E7h[8:1],{32}E3,E4,{16}E5h[8:1],
,8,{32}8,7,{16}6h[8:1],{32},,4,3,{8}2h[8:1],{32}1-5[8:1],8-4[8:1],{16}7,,,,,,,{8}3-5[8:1],
3,{4}8q1[4:1],{2}2-5[8:1]*-7[8:1],
{8}8,{16}4,6,5-1[8:1],6,{8}5,4-2[8:1],3,{4}8,
6bxh[8:1]/1bxh[8:1],{16}4,{32}4,5,{8}6h[8:1],{32}2,3,{16}4h[8:1],{32},,E1,E8,{8}E7h[8:1],{32}E3,E4,{16}E5h[8:1],
,8,{32}8,7,{16}6h[8:1],{32},,4,3,{16}2h[16:1],{32}4,5,{16}6h[16:1],{32}8-4[8:1],1-5[8:1],{8}2h[16:1],,,7b-5-1[16:3],
4,3,2,2-4-8[16:3],8,7,6,
5-3[8:1],5-7[8:1],5x,5x,{32}E3,E2,E1,E8,E7,E6,E5,E4,{4}A8fh[16:0]/E1fh[16:0]/A1fh[16:0],
{16}3qq4b[4:1],4,2,5,{8}3,7,{4}8-4[8:1],{16}8/4,3,2,1,
{4}5xqq4[4:1],7,{8}8h[8:1],{16}4,6,{8}1x,8x/2x,
{16}7qq8[4:1],8,6,1,{8}7,3,4-7b[8:1],5,{4}4/1-5[8:1],
{8}8,{16}6,6h[16:3],,,{8}5,{32}7bxh[8:1]/A4h[32:0],E4h[32:0],E3h[32:0],A2h[32:0],,,,,8bxh[8:1]/B5h[32:0],Ch[32:0],B1h[32:0],A1h[32:0],,,,,{8}6x/2x,
5,4/6,{16}7,5,6,5,{8}7,8bx,2,
3-5-2[16:3],1,8-6[8:1],8-4[8:1],,,7bh[4:1],{16}5x,5x,
,,{8}4/6,3h[8:1],8,7x,6x/5x,{16}5x/4x,,,3xh[16:9]/4xq5[4:1],
,,,,,,,,,,{8}E1,{4}E5,
Ch[4:3],,,B7/E7/B6/B2/B3/E3,
8b/1b,{8}5<8[8:1],6,1p4[8:1],2,4/1,3,
2h[8:1],8h[8:1],6h[8:1],4h[4:1],,3,{16}5/2,2/5h[8:1],,,{8}1-5[8:1],
6-1[8:1],1,6,4>1[8:1],4<7[8:1],,,1x,
7x,6x/4xh[8:1],{16}5,3,4-1[8:1],3,{8}5,{4}E8f/E7/B7,
1b/8b,{8}4>1[8:1],3,8q5[8:1],7,5/8,6,
7h[8:1],1h[8:1],3h[8:1],5h[4:1],,6,{16}4/7,7/4h[8:1],,,{8}8-4[8:1],
3-8[8:1],8,3,5<8[8:1],1,{4}2h[4:1],
{8}1x,{16}5/7,7/5,,4/2,{8}4/2,{16}8,4,6,2,{4}B7fh[16:0],
{8}2>5[8:1],1/5,2,7,8,{16}8x,7x,6x,5x,4x,3x,
{8}1-3-8[16:3],2,1,{16}4,4h[16:3],,,{8}E8h[4:1]/B8h[4:1]/E1h[4:1],,5,
6,6h[8:1],2,{16}3,4,,6,{8}5,{16}8,1,,4,
{8}3h[8:1],5,6/4,{16}7,5,6-2[8:1],5,{8}7,{4}1,
{1}8w4b[2:1],
{8}6pp1[2:3],2pp5b[8:11],,,,,,,,,,,,,,,7pp4[2:3],
3pp8b[8:11],,,,,,,,,,,,,,,,7-5-8-4[8:5],
{4}7h[8:5],{8},,,,,2-4-1-5[8:5],
{4}2h[2:1],{8},,,,2>8b[8:5],
2,,,,,,,{2}2q4[8:3],
{16}A8,A7,A6,A5,{4}A2/E3/B2,
{8}7h[8:1],5,4/6,{16}2,4,,5,{8}3,{4}4h[8:1]/6h[8:1],
{8}2h[8:1],4,5/3,{16}7,5,,4,{8}6,{4}3h[8:1]/5h[8:1],
{8}7-5-3[4:1],4x,2x,1,1-3-5[4:1],4x,6x,7,
8<5[16:3],8,1,2-4[8:1],,5,6,7,
7h[8:1],6h[8:1],5h[8:1],4h[8:1],{4}2-5[8:1]*-6[8:1],2,
{8}7h[8:1],8h[8:1],1h[8:1],2h[8:1],{4}4-8[8:1]*-7[8:1],4,
{8}1,2/4,5-2[8:1],6,5/7qq4b[8:3],8,1,2,
{2}2h[2:1],{16}E8,E4/A3/D4,D6/A5/E6,A1/D2/E2,{4}E5fh[4:1],
{64}A7f/B7f,D8f,A8f/B8f,D1f,A1f/B1f,D2f,{32}A2f/B2f,{1},{4},,,{16},,{1}E7fh[16:0]/Cfh[16:0]/E3fh[16:0],
,{32}7bx/4bx,
5xh[32:55],{16}6xh[16:27],{1},{4},,,{16},,{32}5bx/B7f/E7/A7,
4x,3xpp8z4b[16:19],2x,{8}1x,,,,,,,,,,,{4}7h[4:1],
E1/D1,
1xh[8:1],7xh[8:1]/5xh[8:1],7xh[8:1]/5xh[8:1],6xh[8:1]/4xh[8:1],
5xh[8:1]/3xh[8:1],3xh[16:3]/5xh[16:1],4xh[8:1]/2xh[16:1],8xh[8:1]/1xh[8:1],
2xh[8:1]/4xh[8:1],2xh[16:1]/4xh[16:3],5xh[16:1]/3xh[8:1],4xh[8:1]/6xh[8:1],
4xh[8:1]/6xh[8:1],5xh[8:1]/7xh[8:1],1xh[8:1]/8xh[8:1],C/E7/B7/B3/E3,
{8}5,5,4,4,3,3,2,2,
{16}7,1,7,1,7,8,7,8,{32}7x,6x,{16}5x,3x,1x,{4}7xh[4:1],
{8}E4h[1:1],E8h[8:7],,,,,,,{4}E7/E3,
E5/E1,{32}E6,E5/B5,E4,E3/B2,E2,E1/B8,E8,E7/B6,{4}6xp3b[16:3],
{1}D1f,
{8},,,,,,,,E8,
E7,E6,E5,A1,A2,A3,A4,
E8h[4:3],E4h[8:5],E7,E3,{32},,,,,,,,D7/D3,E6/E2,{16}D1/D5,,,{4}8bxh[8:1]/4bxh[8:1],
{32}4bx/8bx,5,{16}6,1,{32}5bx,6,{16}7,2,{32}6bx,7,{16}8,3,{32}7bx,8,{16}1,4x,
{8}4xh[8:1],{16}D8/E8/A8,{32}D7,D6,{16}D5h[8:1],2x,{8}2xh[8:1],{16}1x,1x,,7x/5x,,4x/2x,{8}2x/4x,
6-4[8:1],6,{4}1p8[4:1],{16}7-4[8:1]*-2[8:1],,,7,,,,,{8}1,
{16}5,3,4-8b[8:1],3,{8}4,5-7b[8:1],6,{4}1,
6bxh[8:1]/2bxh[8:1],{32}1bx/5bx,2,{16}3,6,{32}2bx,3,{16}4,7,{32}3bx,4,{16}5,8,{32}4bx,5,{16}6,1x,
{8}1xh[8:1],{16}D3/E3/A2,{32}D4,D5,{16}D6h[8:1],7x,{8}7xh[8:1],{16}8x,8x,,2x/4x,,7x/5x,{8}7x/5x,
2b-4-8[16:3],5,6,7,7-5-1[16:3],1,2,3,
4-6[8:1],4-2[8:1],4x,4x,{32}E7,E8,E1,E2,E3,E4,E5,E6,{4}A1fh[16:0]/E1fh[16:0]/A8fh[16:0],
{16}6pp5b[4:1],5,7,4,{8}6,2,{4}1-5[8:1],{16}1/5,6,7,8,
{8}4xpp5[4:1],3,{4}2,{8}1,{16}4,3,{8}7h[8:1],8,
5-2[8:1],4,3-8[8:1],1,{4}7-4[8:1]*-3[8:1],7,
{8}1h[8:1],{16}4,2,4-8[8:1],3,{8}5,5-7b[8:1],6,{4}1,
{16}2-5[8:1],6,5-3[8:1],8,{8}2,1,{4}1h[4:1],{16}2,3,4,6xh[8:1],
,8xh[8:1],,5xh[8:1],,1xh[8:1],,7,{8}7-4[8:1],{16}6,8,{8}7,1,
{4}2bxh[4:1],{32}8bx,7bx,6bx,5bx,{8}4bxh[8:1],{32}1bx,2bx,3bx-8[8:1],4bx-8[32:3],8bx,7bx,6bx,5bx,,,,,,,,,{8}1,
{16}7/5,7/5,,4/2,{8}4/2,{16}8,4,6,2,{32}E6,E5,E4,E3,E2,E1,E8,E7,
{4}1xh[4:1],{8}5-7[8:1],7-1[8:1],{2}3h[4:1],
{8}4,8,{16}7,5,,4,,5/3,{8}5/3,{4}4h[8:1]/2h[8:1],
8h[4:1],{8}4>2[8:1],2<8[8:1],{2}6h[4:1],
{8}5,2,5/3h[8:1],{16}6,4,,5-1[32:3],{8}7-5b[32:3],{4}8b,
2xh[4:1],3-1-4[4:1]*pp4[4:1],{2}3,
{8}6,6,{16}4,5,,3,,4/2,{8}4/2,{4}8h[8:1]/1h[8:1],
{16}7-5-1[16:3],,,4,,,{8}2,{4}2h[4:1],{32}E8,E7,E6,E5,E4,E3,E2,E1,
{4}8x<4[4:1],{16}D4,D3,{8}D2,{2}E1h[4:1]/A8h[32:7]/A1h[32:9],
E
