&title=YOUNITHM
&artist=大国奏音
&first=0
&des_6=AyangTelevision_
&lv_6=15+
&des=AyangTelevision_
&inote_6=(260){1},,C1h[1:15],,E3h[1:13],,E7h[1:11],,B6h[1:9],,B3h[1:7],,B7h[1:5],,B2h[1:3],,,,
{8}7b/4b,,6h[4:1]/5,,4,5,4,,7,6,7,6,7,,6b/5b,,2/5,,4/3h[4:1],,5,4,5,,2,3,2,3,2,,4b/3b,,
{8}7b/4b,,6h[4:1]/5,,4,5,4,,7,6,7,6,7,,6b/5b,,2/5,,4/3h[4:1],,5,4,5,,2,3,2,3,2,,4b/3b,,
{8}7,5,6,4,7,5,6,4,8,4,6,4,8,4,6b,,2,4,3,5,2,4,3,5,1,5,3,5,1,5,3b,,
{8}7,7,5,6,3,4,2,2,4,3,6,5,7,7,5,6,
{12}1,5,3,7,3,5,2,8,4,6,2,4,1,5,3,7,3,5,2,8,4,6,2,4,
{2}C1f,E1,E2,E3,E4,E5,E6,E7,
{8}E8/3,3,4,4,5,5,6,6,3,3,4,4,5,5,6,6,3h[8:1],4h[8:1],5h[8:1],6h[8:1],3h[8:1],4h[8:1],5h[8:1],6h[8:1],
{16}4,5,3,6,4,5,3,6,4,5,3,6,4,5,3,6,
{8}7/1b,7,7/3,7,7/5,7,7/3,7,7b,7,5,5,4,4,2,2,
{16}7,5,7,5,7,,2,4,2,4,2,,8/1,,,,2,4,2,4,2,,7,5,7,5,7,,8/1,,,,
{16}7b/2b,,,,6,,6/4,,,,3,,3/5,,,,1,,1,,3,,3,,5,,5,,7,,7,,
{16}8h[4:1]/1,2,3,4,5,,6h[4:1]/5,4,3,2,1,,1h[4:1]/8,7,6,5,4/3b,,,,
{16}2,4,2,4,3,5,3,5,4,6,4,6,
{8}2/8b,2,2/6,2,2/4,2,2/6,2,2,2,4,4,5,5,7,7,
{16}2,4,2,4,2,,7,5,7,5,7,,8/1,,,,7,5,7,5,7,,2,4,2,4,2,,8/1,,,,
{16}6b,4,5,4,6,,7/3,,3,4,3,,2,,4/3,,6,5,6,,7,,2,4,2,4,3,5,4,4,3,5,
{8}2-4[8:1],8-6[8:1],2,8,5,
{16}5,5,5,5,5,,4h[16:1]/6h[16:1],,4h[16:1]/6h[16:1],,7h[16:1]/3h[16:1],,7h[16:1]/3h[16:1],,8h[16:1]/2h[16:1],,8h[16:1]/2h[16:1],,1h[16:1],,1h[16:1],,
{16}2-5[8:1],,5-3-8b[4:1],,2,,6,,7,6,5,4,5,6,7,8,1-6b[8:1],,2-5[8:1],,1,,2,,,,7,,6,,5,,
{16}4b-7[8:1],,7<5-1b[4:1],,7,,3,,2,3,4,5,4,3,2,,2-4-8[4:1],,5,,2,,5,6,7,6,5,4,3,4,5,,
{16}6b-1[8:1],,4,,6,,3-8[8:1],,5,,3,,7pp4[4:1],,4,,7,,2,,2,,2,1,8,,8,1,2,,2,,3,5,3,5,4,6,4,6,3-1
[8:1],5,3,5,3b,,,,8,7,6,5,2,3,4,5,7,6,5,4,1,2,3,4,
{8}7<5[8:1],7,1-5[8:1],1,8-4[8:1],8,2>4[8:1],2,7,7,,8,1/7,
{16}6,5,6,7,6,,
{8}2>4b[8:1],2,8-4b[8:1],8,1-5b[8:1],1,7<5b[8:1],7,2,2,,1,8/2,
{16}3,4,3,2,3,,
{16}2b,1,2,1,2,1,2,1,3,8,3,8,3,8,3,8,4,7,4,7,4,7,4,7,5,6,5,6,5,6,5,6,5b,,,,7/4,,7/4,,,,2/5,,2/5,,,,
{24}1b,2,3,4,5,6,7,8,1,2,3,4,5,6,7,8,1,2,3,4,5,6,7,8,
{8}1b/5b,1b/5b,,2b/6b,,7b/3b,7b/3b,,
{12}2,4,3,7,5,6,3,4,2,6,5,7,
{8}8b/4b,8b/4b,,7b/3b,,6b/2b,6b/2b,,
{12}7,5,6,2,4,3,6,5,7,3,4,2,
{8}6b/5b,7b/4b,,2b/5b,,3b/4b,2b/5b,,6b/5b,8b/4b,,1b/5b,,3b/4b,1b/5b,,
{6}E1hf[64:1]/D1/B8/B1/A8/A1,E5hf[64:1]/D5/B5/B4/A4/A5,E7hf[64:1]/D7/B7/B6/A6/A7,E3hf[64:1]/D3/B2/B3/A3/A2,,C1hf[64:1]/E7/E3/B6/B7/B3/B2/D7/D3,
{6}E8hf[64:1]/B8/B7/D8/A8/A7,E4hf[64:1]/B4/B3/D4/A3/A4,E6hf[64:1]/B6/B5/D6/A6/A5,E2hf[64:1]/B1/B2/D2/A2/A1,,,
{6}E6hf[64:1]/B6/B5/D6/A6/A5/2b,E7hf[64:1]/D7/B7/B6/A6/A7/3b,E8hf[64:1]/B8/B7/D8/A8/A7/4b,E1hf[64:1]/D1/B8/B1/A8/A1/5b,E2hf[64:1]/B1/B2/D2/A2/A1/6b,E3hf[64:1]/D3/B2/B3/A3/A2/7b,
{6}E7hf[64:1]/D7/B7/B6/A6/A7/3b,E8hf[64:1]/B8/B7/D8/A8/A7/4b,E1hf[64:1]/D1/B8/B1/A8/A1/5b,E2hf[64:1]/B1/B2/D2/A2/A1/6b,E3hf[64:1]/D3/B2/B3/A3/A2/7b,E4hf[64:1]/B4/B3/D4/A3/A4/8b,
{6}7bh[12:1]/3bh[12:1],6bh[12:1]/2bh[12:1],5bh[12:1]/1bh[12:1],4bh[12:1]/8bh[12:1],1bh[12:1]/5bh[12:1],2bh[12:1]/6bh[12:1],
(130){8}7b<4b[8:1]/3b>8b[8:1],,7b/3b,,
(260){6}1bh[6:1]/5bh[6:1],,1b/5b,1b/5b,
{24}1b/5b,2/6,3/7,4/8,,,,,
{6}1bh[6:1]/5bh[6:1],,1b/5b,1b/5b,
{24}1b/5b,8/4,7/3,6/2,,,,,
{24}2b,3,4,5,1,2,3,4,7b,6,5,4,8,7,6,5,1b,2,3,4,8,7,6,5,
{32}3b,4,7,6,3,4,7,6,3,4,7,6,3,4,7,6,3,4,7,6,3,4,7,6,3-6-1-4-7-2-5-8-3[1:7],4,7,6,3,4,7,6,
{1},,,,,,,,
{1}8pp7pp6pp5pp4pp3pp2pp1[1:7]/1,,,,,,,,
{1}C1h[8:28]/E3h[8:26]/E7h[8:24]/B6h[8:22]/B3h[8:20]/B7h[8:18]/B2h[8:16],,,,
{1}C1f/E1/E2/E3/E4/E5/E6/E7/E8/B1/B2/B3/B4/B5/B6/B7/B8/A1/A2/A3/A4/A5/A6/A7/A8/D1/D2/D3/D4/D5/D6/D7/D8,
{1}C1f/E1/E2/E3/E4/E5/E6/E7/E8/B1/B2/B3/B4/B5/B6/B7/B8/A1/A2/A3/A4/A5/A6/A7/A8/D1/D2/D3/D4/D5/D6/D7/D8,
{16}1b,2,3,4,1,2,3,4,8b,7,6,5,8,7,6,5,1b,2,3,4,5/1b,6,7,8,1/5b,2,3,4,5/1b,,,,
{16}7b<4[8:1]/3b,,,,4q8b[8:1],,3,,3,2,1,2,3,4,5,4,3b-8[8:1],,3,,7-4[8:1],,7,,2-5[8:1],,2,,6,7,8,1,6,7,8,1,2,3,4,5,6w2[8:1],,,,A6f,,,,
{16}7b,1,7,1,7,1,7,1,8-4b[8:1],2,8,2,8b,,,,
{16}2b>5[8:1]/6b,,,,5-1b[8:1],,6,,6,7,8,7,6,5,4,5,6-2b[8:1],,3-8[8:1],,6-4b[8:1],,3-7[8:1],,6<4b[4:1],3,A6f,,,,,,
{16}2b,,2,1,8,,8,1,2,3,4,,7,6,5,,2-5[8:1],,8-2>4-6b[4:1],,2,,8,,7w3[8:1],,,,A7f,,,,
{16}7b-4[8:1],,,,2-5[8:1],,,,5,6,7,8,1,2,3,4,3b-8[8:1],,,,6-1[8:1],,,,1,2,3,4,5,6,7,8,
{16}7b,6,5,4,1,2,3,4,8,7,6,5,4,3,2,1,2b,3,4,5,8,7,6,5,1,2,3,4,1,8,7,6,
{16}5-7-1v6[2:1]/4,,,,4,,,,3,,,,2,,,,5/4-2-8v2[2:1],,,,5,,,,6,,,,7,,,,
{8}3bh[2:1],,,,E1f,,,,
{32}2,3,4,5,6,7,8,1,2,3,4,5,6,7,8,1,2,3,4,5,6,7,8,1,
{4}2b/5b,
{16}7b/5b,,,8,1,,2/4,,2/4,,,1,8,,7/5,,7/5,,,4,5,,2/4,,3,,3,,7/5,,6,,2/4,,,5,4,,7/5,,6,,6,,2/4,,3,,2-4[8:1],,5,,2-8[8:1],,7,,2-6[8:1],,5,,2b,,,,
{16}7b,3,7,3,7,3,7,3,7,3,7,3,7,3,7,3,6,4,6,4,6,4,6,4,6,4,6,4,6,4,6,4,7,3,7,3,7,3,7,3,8,2,8,2,8,2,8,2,1,1,1,1,1,1,1,1,1,1,1,1,1b,,,,
{16}5b-7[8:1]/1b-3b[8:1],,,,5/1-5[8:1],,,,1b,,,,4,3,2,1,
{16}8-3b[8:1],,7-4[8:1],,8,,7,,2,1,8,,8,1,2,3,4bw8b[8:1],,,,A4f,,,,
{16}6b-1[8:1]/2b-5b[8:1],,,,6b/2b,,,,8/4,,8/4,7/3,6/2,5/1,8/4,,8b/4b,,8/4,1/5,2/6,3/7,4/8,,
{16}7b/5b,,8,1,7,,2/4,,2/4,,1,8,2,,7/4,,6/4,,8,1,7,,2/4,,3/5,,1,8,2,,7/5,,
{16}6b/4b,,8,1,7,,2/4,,3/5,2,1,8,,8,1,2,3b/5b,,1,8,2,,7/5,,6/4,7,8,1,,1,8,7,
{16}6b-8[8:1]/2b-4b[8:1],,,,2-5[8:1]/6,,,,2b,,,,4,3,2,1,
{16}8-3b[8:1],,7-4[8:1],,8,,7,,2,1,8,,8,1,2,3,4bw8b[8:1],,,,A4f,,,,
{16}6b-1[8:1]/2b-5b[8:1],,,,6b/2b,,,,8/4,,8/4,7/3,6/2,5/1,8/4,,8b/4b,,8/4,1/5,2/6,3/7,4/8,,
{16}2b/4b,,3,,3,,6b/8b,,7,,7,,1b/3b,,2,,2,,5b/7b,,6,,6,,8bh[16:1]/4h[16:1],,8h[16:1]/4bh[16:1],,8bh[16:1]/4h[16:1],,8h[16:1]/4bh[16:1],,
{16}7bh[16:1]/3h[16:1],,7h[16:1]/3bh[16:1],,6bh[16:1]/2h[16:1],,6h[16:1]/2bh[16:1],,5bh[16:1]/1h[16:1],,5h[16:1]/1bh[16:1],,4bh[16:1]/8h[16:1],,4h[16:1]/8bh[16:1],,
{16}7b/3b,,8,1,2,3,2,1,
{32}8,1,2,3,4,5,6,7,8,1,2,3,4,5,6,7,8b/4b,,,,1b/5b,,,,2b/6b,,,,,,,,
{24}8b/1b,7/2,6/3,5/4,,,8b/1b,7/2,6/3,5/4,,,7b/8b,6/1,5/2,4/3,,,7b/8b,6/1,5/2,4/3,,,1b/2b,3/8,4/7,5/6,,,1b/2b,3/8,4/7,5/6,,,
{16}7bh[16:1]/3h[16:1],,7h[16:1]/3bh[16:1],,7bh[16:1]/3h[16:1],,,,
{24}8b/2b,7/3,6/4,5,,,8b/2b,7/3,6/4,5,,,7b/1b,6/2,5/3,4,,,7b/1b,6/2,5/3,4,,,
8b/2b,7/3,6/4,5,,,8b/2b,7h[1:0]/3h[1:0],6h[1:0]/4h[1:0],5,,,
{24}8b/4b,7/3,6/2,5/1,,,8b/4b,7/3,6/2,5/1,,,3b/7b,6/2,5/1,8/4,,,3b/7b,6/2,5/1,8/4,,,1b/5b,2/6,3/7,4/8,,,1b/5b,2/6,3/7,4/8,,,2b/6b,7/3,8/4,5/1,,,2b/6b,7/3,8/4,5/1,,,
{24}2b,3,4,8b,7,6,1b,2,3,7b,6,5,2b,3,4,8b,7,6,1b,2,3,7b,6,5,2bh[1:0],3h[1:0],4h[1:0],8bh[1:0],7h[1:0],6h[1:0],1bh[1:0],2h[1:0],3h[1:0],7bh[1:0],6h[1:0],5h[1:0],1b-5[8:1],2h[1:0],3h[1:0],8bh[1:0],7h[1:0],6h[1:0],,,,,,,
{32}8b/2b,,,,8/2,3,4,5,6,,,,8b/2b,,,,8/2,3,4,5,6,,,,7b/1b,,,,7/1,2,3,4,5,,,,7b/1b,,,,7/1,2,3,4,5,,,,8b/2b,,,,8/2,,,,1b,2/8,3/7,4/6,5,,,,
{32}7b/1b,,,,7/1,6,5,4,3,,,,7b/1b,,,,7/1,6,5,4,3,,,,8b/2b,,,,8/2,7,6,5,4,,,,8b/2b,,,,8/2,7,6,5,4,,,,7b/1b,,,,7/1,,,,8b,7/1,6/2,5/3,4,,,,
{32}1b,2,3,4,5,6,7,8,1,2,3,4,1,2,3,4,8b,7,6,5,4,3,2,1,8,7,6,5,8,7,6,5,
{32}3b,2,4b,5,3b,2,4b,5,3b,2,4b,5,3b,2,4b,5,8b,1,2,3,8b,7,6,5,8b,1,2,3,8b,7,6,5,
{24}4b,3,2,1b,8,7,3b,2,1,8b,7,6,
{32}1,8,7,6,5/1,4/8,3/7,2/6,1/5,8,7,6,5/1,4/8,3/7,2/6,1b<6b[8:1]/5,
{32}8<5[8:1],7b<4b[8:1],6>3[8:1],5b>2b[8:1],4>1[8:1],3b>8b[8:1],2<7[8:1],
{64}A1f,D1f,A8f,D8f,A7f,D7f,A6f,D6f,A5f,D5f,A4f,D4f,A3f,D3f,A2f,D2f,
{64}1b,D1f,8b,D8f,7b,D7f,6b,D6f,5b,D5f,4b,D4f,3b,D3f,2b,D2f,
{64}1bh[1:0],D1f,8bh[1:0],D8f,7bh[1:0],D7f,6bh[1:0],D6f,5bh[1:0],D5f,4bh[1:0],D4f,3bh[1:0],D3f,2bh[1:0],D2f,
{1}C1h[1:16],,,,,,
{1},,E3h[1:8],,E7h[1:6],,B6h[1:4],,B3h[1:2],,,,,,,
E
