&title=世界の歩き方
&artist=星乃一歌 × 桐谷遥 × 鳳えむ × 宵崎奏 × 初音ミク
&first=0.115
&des_1=fuwan
&des_2=fuwan
&des_3=fuwan
&des_4=fuwan
&des_5=fuwan
&lv_5=12+
&des_6=fuwan
&des_7=fuwan
&des=fuwan
&inote_5=(125){4},,6h[4:3],E8,
C,E4h[4:1],5,6/4,
5/7pp4[2:1],5h[4:1],,Ch[4:1],
5-7[8:1],3-5[8:1],8-4[8:1],2xh[4:1],
{16},,E4,E5,{8}E6,4,5/3,6,{4}7/5h[4:1],
{32}E2,E1,{16}E8,,,{4}4h[4:1],{32}E1,E8,{16}E7,,,{4}6h[8:1]/4>1[8:1],
{32}E4,E3,{16}E2,,,{4}3h[8:1]/5<8[8:1],{32}E6,E7,{16}E8,,,{8}7/1,8,
3/1,2,4/3,5,4/6,4,{4}6-1[8:1]/3-8[8:1],
6pp4[8:3]/3qq5[8:3],6b/3b,{16},,,,E8,E7,E6,E5,
{8}E4,{16}A1,A2,A3,A4,{8}A5,7h[8:1],5h[8:1],4,{16}2,2,
,4,3,6,{8}E1,C,{4}E5/E6/E4,{16}2,4,3,5,
{8}4h[8:1],{16}7,5,6,4,{8}5h[8:1],3>8[8:1],4,5/3,{16}6,6,
,1,4,2,5,3,{8}6,{16}4,6,{8}3,{16}7-4[8:1],5,7,5,
{8}7,{16}3>8[8:1],5,3,5,{8}3,4,1,5h[8:1],{16}1,1,
,4,{8}4/2h[8:1],B4,B6,{4}B8/B2,{16}2,4,3,5,
{8}4/6h[8:1],{16}5,6,4,5,{8}4h[8:1],5,4/5,4/3h[8:1],{16}1,1h[8:1],
,4,3,2,8,7,{8}6,{16}3,2,{8}1h[8:1],{4}6pp4[8:3],
5,3,1h[4:1],3-7[8:1],
3-5-1[4:1],5/3,7h[4:1],8>3[8:1],
5<8[8:1],4-8[8:1],4-7[8:1]*-1[8:1],4,
{8}6h[8:1],{16}4,4,{8}5,3,4h[8:1],3,2/1,3,
4/5,6-4[8:1],3,{16}2,2,,1,{8}1h[8:1],3<6[8:1],2,
2,3,3v6b[8:1],7,7,8,4/7,6,
2/5,3,5/4,{16}6,4,{8}5,3,4/3,5/2,
6/5,4/7,1h[8:1],{16}3,2/4,,5,{8}4/6,5/7b>4[8:3],{16}6,6,
,,E1,C,{4}E5h[8:3],C,{8}1x-7-5[4:1],2,
3,{16}E1,C,E5h[8:3],,,A6,,,{8}A7,{16}8/5,,,4/1,
,,{8}3/2,{16}4h[16:3],,,2h[16:3],,,{8}1<6[8:1],3,{16}4,4,
,,{8}5,{16}4/2,,,7/5,,,{8}8/1,{16}6h[8:1]/8h[8:1],,,3h[8:1]/1h[8:1],
,,{8}5/4,6/3h[8:1],{16}6,7/4h[8:1],,7,{8}8/5h[8:1],{16}8xqq4[4:1],,,4,
,3,{8}3,{16}2-6[8:1],,,4,,7,{8}7,5/8,5,
7/4,4,6/3,3,5/2,2bh[8:1],{16}E4,E5,E6,E7,
3,4,5,6,{4}7bh[4:1],1h[1:1],{32}B8,C,{16}B4,{32},,,,,,,,,,,,E7,
E6,{16}E5,,,{4}Cfh[4:1],{8}2x,{16}3,3,
,,{8}4bx/5bx,3/6,{16}6,5,{8}7,{16}3,4,{8}2-5[8:1],4/3,
2b/5,6,7-4[8:1],6/5,4/7b,3h[8:1],{16}5,2,4,3,
5,5,1,1,6,5,7,4,{8}8,1/2,4/3,6/5,
1-6b[8:1]/8-3b[8:1],7/2,{4}1b/8b,{8}4/5-1[8:1],3-7b[8:1],5bx,3bx,
8bxh[8:1],{16}E1,E2,E3,A7,A6,Cf/A5,,,3,4,{8}5<8[8:1],3,
2,1,5>2[8:1],6,7,8h[8:1],{16}1,3,2,4,
3,5,{8}5h[8:1],{16}7,1,{8}1h[8:1],7h[8:1],8,{16}6>3b[8:1],8,6,8,
{8}6,2,4/5,6/8h[8:1],7,6/5,4>1[8:1],{16}5,5,
{8}4/6,6,8/7,5/6,3/4,1/2h[8:1],{16}4,2,6,4,
{8}8h[4:1],{16}E8,E7,E6,E5,{8}E4,5h[4:1],2,3p7[8:1],{16}4,4,
,6,{8}6,2/8,3/4,{4}2bx/5h[4:1],{16}E4,E5,E6,E7,
{8}E8,{16}5,5,3,6,{8}6,4,5/6,7p3[8:1],{16}8,8,
,1,{8}1,2/4,5/4,{16}5,4,{8}6,{16}8,7,6,3,
2,1,7,6,{8}5pp7[8:1],1pp3[8:1],5,1,6,{16}4,5/3,
,3,{8}4/2,1/3,8/4,{4}5bx/7bx,{16}4,3,2,8,
7,6,3,2,{8}1pp3[8:1],5pp7[8:1],1,5,2,{16}1,2/8,
,8,{8}7/1,5/6h[8:1],4h[8:1],{16}5,5,3,3,B3,B4,B5,B6,
A3,A4,A5,A6,{4}A7h[8:1],,
E
