&title=親愛なるあなたは火葬
&artist=Smire
&first=0
&des=Smire
&lv_5=13+
&des_5=Smire
&inote_5=
(94){4},{36},,,,,,,,,,,{9}C,{63},,,,,,,,,,Cf,{16},,{64},,,{2016},,,,,{64}5,
,6,,5,,6h[64:5],,,,,,,,,,5/4,,,,3/2,,,,,{32}8/1,{64},,,,,4,,3,,4,,3h[64:5],,,,,,,,,,5/4,,,,7/6,,,,8/1,,,,,,,{32}8,
7,8,7h[64:5],,,,,2,3,4,7,6,5,{64},,,,,5,,4,,5,,4,,5-1[64:5],,4,,5,,4,,5,,4,,5,,4,,5,,,,,,,,,{32}6,
5,6,{8}5h[64:5],{32},5/4,,4,,4/3,{64},,,,,2,,3-7[64:5],,7,,6,,2,,3,,7,,6,,2,,3,,,,,{8}A7f,
{64},6,,5,,6,,6/5,,,{32}3/4-8[16:1],,4/3,,E6,,B2,,4,,,,5,6,7,4x,3x,2x,1x,8x,7x,,7x,,6,,6/5,
,4-8[64:5],5,4,5,4,5,4,5,4,{64},,,B8f,,,,,,,,,{32}2,3,4,7,6,5<8[64:5],4,3,2,1,,1,{64},,A4,D4,A3,D3,A2,D2,
,,,,,4x,,3x,,2x,,,,7/5,,,,6/4,,,,5/3,,,,4/2,,,,,,,,,{32}5,4,5,{8}4h[64:5],{64},8b/E3,,,,7b/E3,,,,6b/E3,,,,5b/E3,,,,,{32}4x,
3x,4x,{8}3xh[64:5],{64},6b/4b,,,,5b/3b,,,,4b/2b,,,,,,,,5,,,,5,,,,4>1[32:3],,,,4,,,,5,,,,,{32}5,{64},A5,D6,A6,D7,A7,D8,A8,
,,{32}5x,6x,7x,{8}7xh[64:5],{64},1b/E7,,,,2b/E7,,,,,{32}3b/E7,,,,5,5,5,5,5,,C,,5/4,{64},3/2,,,8b/1b,7b/2b,3b/6b,5b/4b,,,,,,,{32}5<8[64:11],
{64},,,,,,,,,8>3[32:5],,,,,,,,,,,,,,,,4,,,,,,,,5h[16:3],{4},{16},,{64},,,5,
,,,4,,,,6,,,,3,,,,5,,,,4,,,,6,,,,3,,,,5-1[8:1],,,,4,,,,6,,,,3,,,,5,,,,,,,,A1f,,,,,,,,,{32}5h[64:7],
,,,,,4x,4x,4x,{64},5,,6,,7,,,,C,,,5-1[8:1]/4-8[8:1],,,,,6/3,,,,5/4,,,,6/3,,,{4}5/4,
{64},1,,,,8,,,,2,,,,7,,,,1-5[64:7],,,,8,,,,1,,,,7,,,,1,,,,,,,{8}A5f,{64},,,,,5-1[32:25],,,,3,,,{16}2,
{32},3b,{64},,,,,2b,,,,,,,3b,,,,,,,,,2b,,,,,{32}3b,,2b,{64},,,,,3b,,,,,,,2b,,,,,,,,,,,,,,,3/6<1[32:5],
,,,,,,,,,,{32}Cf,{64},,,,,,,,,,,,,,,,,6b,,7,,8,,4b,,3,,2,,1,,8,,7,,6,,5b,,,,,,,,Cf,,,,,,,,5,
,,,5,,,,5/4>1[64:25],,,,5,,,,5,,,,5,,,,5,,,,5,,,,5,,,,5,,,,5,,,,5,,,,5,,,,,,,,C,,,,,,,{16}4,
{32}4,3,4,3,{16}4,4,4,{64}4,3,,,4,3,,,,3/2,,,,,,,{8}1/8,{32}5b/4b,,,,,C,{64},,,,,1/2-5[8:1],
,,,,,,,5/4-7[8:1],,,,,,,,6-1[8:1],,,,,,,,A5f,,,,,,,,6,,,,,,,,A1f,,,,,,,,6/7,,,,,,,,,{32}8,8,8,
8,1-4[64:5]/7-4[64:5],,,,6,,2,,7/1,,,,Cf,,,,3/2-7[64:5],{64},,,,,4,,,,,,,5,,,,,,,A7f,,,{32}4,4,4,
4,5/4-1[64:7],{64},,,,,2/3-6[32:3],,,,,,,,,{32}4,{64},,,,,3,,,,,,,,,{32}B7/E7/B6,{64},,,,,B2/E3/B3,,,,,,,Cf,,,,,,,7,,6,,2,,3,,,,,{32}6h[64:11],
,,,5,{64},,,,,4,,3,,2,,1,,8b,,,,8b,,,,,{32}7,{64},7,,,,6,,,,5,,,,Cf,,,,,,,,,,,,,,,{8}5<7[32:3],
5,{64}4/5>3[64:5],,,,,,,,,5,,,,,,,5,,,,,,,,,5,,,,,,,,,,Cf,,,,,,,{32}3,3,3,
{64}3/4<6[32:3],,,,,,,,,4,,,,,,,4>2[64:5],,,,,,,,,4,,,,,,,4w8[16:1],,,,,,,,,4,,,,,,,A4,,,,,,,5,,5,,5,,5,,,,5/4-1[64:9],
,,,,,,,4,,,,,,,4/6-3[64:9],,,,,,,,,3>7[32:5],,,,,,,,,,,,,,,,A3f,,,,,,,,,,,,,,,,3,,3,,3,,3,
,,{32}5V71[8:1],,,,,,,,5V31[64:7],,,,,,,,,,,,,,,1,2,3,4,5,6,7,8,
{64},1/3-6[0.359##0.2394],,,,,,,,,{32}3/8-5[0.2793##0.2793],{64},,,,,8/4-1[0.2793##0.2793],,,,,,,4,,,,,,,A1f,,6b,,,,7b,,,,8b,,,,1b,,,,2b,,,,,,,,4-1[0.2793##0.2793],,,,,,,{8}4/7-2[0.359##0.2793],
7/6-3[0.3192##0.2793],{32}6,,,,,5/4-7[0.3192##0.2793],,,,4/5-2[0.359##0.2793],,,,A5f,,,,A2f,{64},,,,,3/7-4[64:3],,,,,,,,,,,,,,,,A7f,
,,,,,,1-6[16:1],,,,,,,,,1-4[16:1],,,,,,,{16}A1f,A6f,{64},A1f,,,,A4f,,,,,,,,,,,6/4,,,,,5/3,,,,5/4q8[32:3],
,,,,,,,Cf,,,,,,,,A4f,,,,,,,,,,,{16}5/4>1[64:11],5,5,5,5,5,5,{64},,,,,C,,,,4/5<8[2:1],
,,,4,,,,4,,,,4,,,,4,,,,4,,,,4,,,,4,,,,4,,,,4,,,,4,,,,4,,,,4,,,,,,C,,,{32}8,C,8,
C,8,C,8,C,8,C,8,C,8,C,8,C,8,C,8,C,8,C,8,C,8,Cf,8b,{64},,,,,,,,,8,,7,,1,,2,
,8,,7,,1,,2,,7,,6,,2,,3,,7,,6,,2,,3,,6,,5,,3,,4,,6-2[32:3],,5h[64:7],,,,,,,,,,,,,,6,,,,,,,,5h[64:9],,,,4,,,,,,,,,,,,4,
,,,4,,,,4,,5,,4,,5,,4,,,,4,{32}5,{64},4,{32}5,{64},4,,,,4,,,,4,,,,4b,5,6,7,8,1,2,3,4,5,6,7,8,1,2,
3,4,{32}5b-8[8:5],{4},,,{16},,,{32},5/4,
,,,,,5h[64:5]/4h[64:5],,,,,{8}6h[32:3]/3h[32:3],{32},7/5,{64},6/4,,,,5/3,,,,4/2,,,,3h[64:9]/5h[64:9],,,,,,,,,,,,,,,,,{32}5,
,4,,6,,3,,5,,4,,6,,3,{64},7,,,,2,,,,8,,,,1-5[8:1],,,,,{32}7,,,,1,,,,,,,{16}2,
{32}4,3,2h[32:3],,,,,5,6,7,8,1,2,3,4-8[16:1],5,6,7,{4}8,
{64},6h[16:3]/3h[16:3],,,,,,,,,,,,,,,,5v7[32:9]/1v3[32:9],{4},,{16},,{32}C,{64},,,,,8/6-3[8:1],
,,,,,,,7,,,,,,,,A4f/7-4[16:1],,,,,,,,,,,,,,,,A7f,,,,,,,,7bx,,,,8b,,,,1b,,,,,,,,C,,,,,,,,2/3x-6[64:7],
,,,,,,,,{32}3/8x-4[32:3],,,,,,,,A8f,{64},,,,,,,,,B7/E7/B6,,,,B2/E3/B3,,,,1b,,,,,{32}8b,{64},,,,,6b,,D4,A3,D3,{32}A2,
,5/4p5[64:7],,,,,,,,A4f/6<3[64:9],,,,,,,,6,,,,,,Cf,{64},,,,,,,,,A3f,,,,,,,7-2[32:5]/2-7[32:5],
,,,,,,,,C,,,,,,,{4}7/2,1-5-1[4:1]`8-4-8b[4:1],8b`1b,
,,,,,,,B7f/B6f/Cf/B2f/B3f,
{32},5/6h[4:1],{4},{16},,,{64},4/3h[4:1],{4},{16},,,{64},,,Cf,
,,,,,,,,,,,,,,,Cf,,,,,,,,,,,,,,,,4,,3,,2,,,,,,,,,{32}B6,C,B2,{64},,,,,,,,,,,,,5/4h[4:1],
{4},{16},,,{64},,,6/7h[4:1],{4},{16},,,{64},,,3/2h[4:1],
{4},{16},,,{64},,,Cf,,,,,,,,,,,,,,,,Cf,,,,,,,,,,,,,,,,8/7h[4:1],
{4},{16},,,{64},,,1/2h[4:1],{4},{16},,,{64},,,4b,
,,,,,,,,,,,,,,,3b,,,,,,,,,,,,,,,,2b,,,,,,,,,,,,,,,,2b,,,,,{32}1b,{64},8b,,7b,,6b,,,,5b,
,4,,5,,4,,5,,4,{32}5,4,6b,3,6,3,6,3,6,3,8b,1,7,2,8,1,7,2,8,1,7,2,8b,1,8,1,
8,1,8,1,4,4,4,4,4,7b,6,{64}5,2b,,3,,4,,7b,,6,,5,,2b,,3,,4,,6b,,7,{32}8,3b,2,1,6b,7,8,3b,2,1,
3b,4,5,2b,3,4,5,2b,3,4,5,6h[32:1]/4h[32:1],,5h[32:1]/3h[32:1],,6h[32:1]/4h[32:1],,5h[32:1]/3h[32:1],{64},Cf,,,,4bh[64:3],,,5b,6,7,8,1,2,3,4,5/8,7,6,5,4,3,2,1,{32}8x,7x,
8x,7x,6,6,6,6,4b,4b,4b,4b,{16}5bh[32:1]/3bh[32:1],4bh[32:1]/6bh[32:1],5bh[32:1]/3bh[32:1],6b/4b,{64}8b,7,6,5,8,7,6,5,1b,2,3,4,1,2,3,4,,3b,B3,C,B7,7x,A3,D3,A2,D2,{32}A1,
5b,4,5,4,5,4,5,4,6b,3,6,3,{16}6,{64}2/6,7/3,4/8,1/5,,Cf,,4b,,4b,,4b,,4b,,5,,5,,5,,5,,6b,7,8,1,2bh[16:1]/3bh[16:1],,,,,,4,,4,
,4,,3b,2,1,8,7h[64:3]/6h[64:3],,,,,{16}5h[64:3]/4h[64:3],{64},3bh[64:3]/2bh[64:3],,,,,{32}7b,6,7,6,7,{64}6,5,4,3,2,1,,1,,1,,1,,8b,7,6,{32}5,{64}3b,B3f,Cf,B7f,7x,8x,1x,2x,3x,4x,5x,6x,,,,1b,
,2,,1,,2,,1,,2,{32}1,2,3b,4,5,3b,4,5,6b,7,8,3b,2,1,8b,7,6,1b,2,3,8b,1,7,2,8,1,
7,2,1bh,1h,1h,1h,8b,8,8,{64}8,7,6,5,,4bh,,5h,,5bh,,4h,,5h,,4bh,,3b,,4,,3,,4,,2b,,4,,3b,,4,,3,,4,,3,,2b,1,8,7,6,{32}5-3-1-7-5>2<1<8<7<6>5-1[32:51],
{1},{4},,,{16},,,5/4,
{64},,,,,,,,,3/2,,,,,,,,1/8,,,,,,,,,{32}7/6,{64},,,,,5/4,,,,,,3,B3f,Cf,B7f,7,,,,,,A5,D6,A6,D7,A7,D8,A8,D1,A1,D2,A2,D3,A3,{32}D4,
{64},7,,,,,,,,,{32}6/B3/B4/E4,,7/B2/E3/B3,,5,,4,,6,,3,,5/4,,,,3/2,{64},,,,,,1,A8,D8,A7,D7,A6,D6,A5,,,,,,,,,{32}3/B6/A6/E6,
{64},,,,,2/E8/A7/B7,,,,,,,,,{32}1,,,,8,,,,7,{64},,,,,6,,,,,,,{32}6,5,4,3,2,1,8,7,
{64}6,,,5/4,,,,,,3/2,,,,,,,,2,,,,3,,,,,{32}1,,5,,4,,6,,3,{64},5,,,,4,,4,,4,,4,,4,,4,,,,,{32}5h/4-8[32:5],
,,,,4/1-5[32:5],,,A4f,,,,,A1f,{64},,,,,,,,,,,,,Cf,,,,,,,{32}5b/4,{64},,,,,,,,8b/1b,7b/2b,6b/3b,4b/5b,,,,2/3-6[8:1],
,,,,,,{8}5-1[8:1],{64},3,,,,,,,{8}A5f,{32},2/3,,,{8}4/5,{32}6/7,{64},,,,,,,,D6f,E6f,Cf,E2f,{32}D2f,
,8/7-4[8:1],,,,1-6[8:1],,,,7,,,,A1f,{64},,,,,,,,,,,,,6h[64:9]/3h[64:9],,,,,,,,,,,,,,,,,6/2,7/3,8/4,5/1,,,,,{32}5h[64:11],
,,,,,,,4,3,2,,,,,C,{64}A1,D2,A2,D3,A3,D4,,,,Ch[64:49],{4},,,{16},{32},7/6-3[8:1],
{64},,,,,5-8[8:1],,,,,,,,6/2-7[8:1],,,,,,,,5,,,,,,,,A2f,
,,,,,,,,,,,,,,,Cf,,,,,,,,,{32}8-4[32:3]/1-5[32:3],,,E7,,,,,8b/1b,{64},,,,,,,,,A5f/6x-2[32:3],{4},{16},,{64},,,Cf,
,,,,,,,4>1[64:19]`5,,,,5,,,,5,,,,5,,,,5,,,,5,,,,5,,,,5,,,,5,,,,5,,,,2v7[64:7]/7v2[64:7],
,,,3,,,,4,,,,5,,,,7/2,,,,,,,,,,,,Cf,,,,6x-3[64:3]/7x-2[64:3],,,,,,,,,,,,,,,,7/6,,,,,,,,,{32}5,,4,
,5,,4,{64},6,,,{16}3,{64},7,{32}B3f,{64}7,B3f,,7,{32}B3f,{64}7,B3f,,7,{32}B3f,{16}7,5/4,{64},B5,,,,,,,,,,4,,,{32}3,{64},5,,,,6,,,,7q6[32:3],
,,,2,,,,3,,,,4,,,,A7f,,,,,,,,1/2-6[16:1],,,,,,,A5,,,,,,,,,A2f,,,,,,,,1,,2,,3,,8,,7,,6,,,,,,4-1-4[32:5],
,,,,,B7f/E7f/B6f,{4},{16},,{32},7/6-2[8:1],,,,1-5[8:1],,,,A6f,,,,A1f,{64},,,,,,,,,,,,,6/4,
,,,5/3,,,,6/4,,,,,,,,5-2[32:3],,,,,,,3-7[8:1],,,,,,,,,A5f,,,,,,,3,,,,,,,,,,,2,,,{32}3,
{64},4h[8:1],,,,,,,,,,,{16}5,{64}6,,,,,,,,,5/Cf,,,,,,,,,{32}6,{64},,,,7/B2f,,,,,5,,,,7/B2f,,,,,,,{16}5,8/Cf,
{64},,,5,,,,4,,,{32}6,{64},3,,,,,{32}Cf,{64},,,,,6-2[64:7],,,,,{32}E4f/B4f/A4f,{64},,,,,,,,,A6f,,,,,,,,,{32}7h[8:1],,,,,,8b,
,1b-5[64:5],,,{8}2b,{64},,,,,,,,,,,,,,,,5,,,,,,,,,6b/E4f/B3f/B4f,,,,7b,,,,,{32}6,{64},,,,7b/B2f/E3f/B3f,,,,,6,,,,,{32}4,
{64},5,,,,7/6,,,,3/2,,,,,{32}5b/4b,,,,5q4[64:9],{64},,,C,,,,,,,,,,,{32}A5f,{64},,,,,,,3xh[32:3],,,,,,,,,,6b,,,,Cf,
,,,6,,7,,8,,1,,2,,3,,,{32}Cf,{64},,,,,,,6b/B3f,,,,,,,{32}5/4,{64},,,,5p7[64:7],,,,,4,,,,,{32}2,,,{8}5,
{64},3>8[64:5],,,,3,,,,3,,,,3,,,,3,,,,,,,{16}6-2-8-4[64:9],6,{64},6,,,,,,,{8}6,{64},,,,,6,,,,5,,,,4h[4:1]/3-7[32:3],{4},{16},,{64},,,5q3[64:5],
,,,,,,,4pp6[32:3],,,,,,,,5,,,,,,,,4,,,,,,A6f,,,,,{16}3b/2b,
{64},5,,,,4,,,,6,,,,3,,,,,{32}5b/4b,{64},,,,,,,5q1[8:1],,,,,,,{32}5,{64},,,,,,,5,,,,,,,,,,4,,3,,2,,1,,8,,7,
,6,,,,Ch[8:3],,,,,{32}E7f,,,,E1f,,,,,,,2,3,4,5,6,7,{64}8,C/B7/B6,{32}1,2,3,4,5,6,7,8,1,
2,{64}3,B7/C/B6,{32}4,5,6,7,8,1,2,3,4,5/8,7,6,5,4,3,2,{64}1,B2/E3/B3,{32}8,7,6,5,4,3,2,{64}1,B2/E3/B3,{32}8,7,6,5,4,
3,2,1,8,7,6,5,4/1,2,3,4,5,6,7,{64}8,B7/E7/B6,{32}1,2,3,4,5,6,7,{64}8,B7/E7/B6,{32}1,2,3,4,5,6,7,8,1,
2,3,4,5/8,7,6,5,4,3,2,{64}1,B2/E3/B3,{32}8,7,6,5,4,3,2,{64}1,B2/E3/B3,{32}8,7,6,5,4,3,2,1,8b,1,8,1,8,
1,8,8,8,8,8,8,8,,Cf,,5,4,5,4,6,3,5,4,6,3,5,4,6,3,{64}8b,7,6,5,,8b,7,6,{32}5,{64}1b,2,3,4,
,1b,2,3,4,,,5,,6,,5,,6,,5,,6,{32}3b,5,6,5,6,2b,5,{64}6,,,5,,6,,1b,,2,,3,,4,,5,,6,,7,,8,B7/E7/B6,1,,2,,3,,4,,5,
,6,,7,,8,B7/E7/B6,1,,2,,3,,4,,5/8,,7,,6,,5,,4,,3,,2,,1,B2/E3/B3,8,,7,,6,,5,,4,,3,,2,,1,,8,,7,,6,,5b,,4,,5,,4,,5,,4,
,5,,4,{32}6,3,5,4,6,3,5,4,6,3,{16}5,5,{32}5bh,4,3,2,1,8,{16}7h[16:1]/6h[16:1],{64},,,5b,,4b,,5b,,4b,,6,,3,,5,
,4,,6,,3,,5,,4,,6,,3,,5,,4,,6,,3,,5b,,4,,5b,,4,,5b,,4-1[64:461],,,,,,,,,{32}5,,5,,5,,5,,5,,5,
,5,,,,Cf,{64},,,,,Cf,,,,,,,,5,,,,5,,,,5,,,,5,,,,5,,,,5,,,,5,,,,,,,,Cf,,,,,,,,Cf,
,,,,,,,5,,,,5,,,,5,,,,5,,,,5,,,,5,,,,5,,,,,,,,Cf,,,,,,,,Cf,,,,,,,,5,,,,5,,,,5,
,,,5,,,,5,,,,5,,,,5,,,,5,,,,Cf,,,,,,,,Cf,,,,,,,,5,,,,5,,,,5,,,,5,,,,5,,,,5,,,,5,
,,,5,,,,5,,,,,,,,Cf,,,,,,,,Cf,,,,,,,,6-3[64:9],,,,,,,,,{32}Cf,{64},,,,,6,,,,,,,,,,,,,,,,7-4[8:1],
,,,,,,,Cf,,,,,,,,7,,,,,,,,,,,,,,,,5-8[64:7],,,,,,,,,{32}Cf,{64},,,,,5,,,,,,,,,,,,5,,,,5,
,,,5,,,,5,,,,5,,,,5,,,,,,,,Cf,,,,,,,,Cf,,,,,,,,5-2[64:7],,,,,,,,Cf,,,,,,,,5,,,,,,,,,,,,,,,,2-6[64:7],
,,,,,,,,,,,Cf,,,,2,,,,,,,,,,5,,,,5,,,,5,,,,5,,,,5,,,,,,Cf,,,,,,,,,,,{16}C,
{32},5w1[8:1],
E
