&title=Criminal (Nightcore)
&artist=Britney Spears
&first=0.58
&des_1=SetDesigner
&des_2=SetDesigner
&des_3=SetDesigner
&des_4=SetDesigner
&des_5=Rachel Gardner
&lv_5=13
&des_6=SetDesigner
&des_7=SetDesigner
&des=SetDesigner
&inote_5=(118.78)
{8}
3h[8:1],,3h[8:1],,5h[8:8],,A3h[8:1],,A7h[8:1],,C1,,1h[8:2],,,,
6h[8:1],,6h[8:1],,4h[8:8],,A6h[8:1],,A2h[8:1],,C1,,8,,8,,
26,,{16}7x/3x,,6,4,6h[8:2],,,,E2,,,,73,,,,2x/6x,,3,5,3h[8:2],,,,E8,,,,
26,,,,7x/3x,,6,5,6h[8:2],,,,C1,,,,
73,,,,2x/6x,,3,4,3,,6,5,6,,74,,,,
{8}
2h[8:2],3,4,5h[8:2],4,3,2,1>4-6[8:4],8,7,,,,8x,,3h[8:2],4,5,6h[8:2],5,4,3-1[8:1],7h[8:7],3-5[8:1],,3-8[8:1],,3-6[8:1],,3,,
8,7,6,2,3,4,7h[8:2],6,5-7^2[8:4],4,3,,,,4x,,
53,4,5,2,3,4,6-4[8:1],2h[8:7],6-8[8:1],,6-3[8:1],,6-1[8:1],,6,,
73,3,4,5,63,4,5-7[8:1],2-4[8:1],5-1[8:1],2,5,,73,,15,,
62,6,5,4,63,5,4-2[8:1],7h[8:7],4-6[8:1],,4-1[8:1],,4-8[8:1],,4,,
62,2,3,4,35,4,5h[8:2],7,4h[8:2],2,8qq8[8:4]*pp8[8:4],,,,,,,
3h[8:2],4,7,6h[8:2],5,2,73,8h[8:6]/4,,A6h[8:1],,A2h[8:1],,C1,,
2b/6b,2,24,2,2/8-4[8:1],,1-3[8:1],1,7-5[8:1],7,8h[8:4],,2-6[8:1]b,,,,
73,3,15,1,7x/3x-5[8:1],,7-1[8:1],8,2-6[8:1],3,8h[8:4],,1-4[8:1],2,,,
73,7,71,7,7/5-2[8:1],,1-6[8:1],1,3-7[8:1],3,5h[8:4],,8-4[8:1]b,,,,
62,6,84,8,6x/2x-5[8:1],,6-1[8:1],7,3-7[8:1],4,5qq5[8:2]b*pp5[8:2]b,,,,,,
1,2,3,4,8h[8:7]/5,,A2,B3,C1,B6,A7,,74,,25,,8,7,6,5,1h[8:7]/4,,A7,B6,C1,B3,A2,,24,{16}3,5,{8}3,6,
7h[8:2]/E5,E4,A3,8,1,2,73,4,5h[8:2]/A1,E1,E8,6,4-1[8:1]*-7[8:1],,,,2h[8:2]/A6,E6,E5,3,7,8,1-7[8:1],5h[8:3],1-3[8:1],,1-6[8:1],,5-8[8:1]/1-4[8:1],,,,
3h[8:2]/A7,E8,E1,2,4,5,63,7,8h[8:2]/A2,E3,E4,7,5-2[8:1]*-8[8:1],,,,
7h[8:2]/E5,E4,A3,6,5,3,8-2[8:1],4h[8:3],8-6[8:1],,8-3[8:1],,4>1[8:1]/8<5[8:1],,,,26,8h[8:5]/4h[8:5],,,,,,3>5[8:5],5,7h[8:5],,,,,,8>5[8:5]b,4,2h[8:5],,,,,,,7b/3b-5-1-7[8:5],,,,,,,A6,,5h[8:2],2,3h[8:2],7,6h[8:2],1,4h[8:2],8,7,5qq5[8:3]*pp5[8:3],,,,,,,3h[8:2],4,8,6h[8:2],5,1,72,6h[8:6]/3,,
A4h[8:1],,A8h[8:1],,C1,,
2b-6[8:1]/6b,2,2/8-4[8:1],8,8/2-4-7[8:2],,7-5-2[8:2],,2,,8-5[8:1]*-3[8:1],,,,6x/2x,,
3h[8:1]/4,8,6h[8:1]/5,1,3x/4x-8[8:1],,2pp6[8:2],2,7,8,1h[8:4],,4-7[8:1]b,5,,,
8/3-8[8:1],3,7-4[8:1]/3,7,7/1-3-6[8:2],,6-4-1[8:2],,1,,7-2[8:1]*-4[8:1],,,,1x/5x,,
8h[8:1]/7,5,2/1h[8:1],4,8x-4[8:1]/7x,,6pp2[8:2],6,3,4,5h[8:2],,1qq1[8:2]b*pp1[8:2]b,,,,
,,,
{16}
4,5,3h[8:1],,4,2h[8:1],,3,1h[8:3],,,,,,5,,7h[8:2],,,,6,,5,,4,,6-1[8:1]/3,,,,2h[8:2],,,,7,,3-8[8:1],,,,7h[8:2],,,,2,,6,,5,,4w8[8:1],,3,,4,,,,62,,,,,,
5,4,6h[8:1],,5,7h[8:1],,6,8h[8:3],,,,,,4,,2h[8:2],,,,4,,5qq1[8:6],,6,,7h[8:4],,,,,,,,,,,,6,,6,,75,,1,4,1,,8,5,8,,72,,6-1[8:1]b/3-8[8:1],,54,,,,,,,,
6,6,5h[8:1],,7,4h[8:1],,8,3h[8:3],,,,8,,5h[8:4],,,,B2,E3,,B7,E7,,1,,8-5[8:1]/2,,,,1h[8:2],,,,7,,3-7[8:1],,,,5h[8:2],,,,1,,82,,73,,6-2[8:1]/4-8[8:1]b,,5,,,,,,73,,,,,,,,
3h[8:1],,5,4h[8:1],,6,5h[8:2],,,,7,,8h[8:2],,,,4,,3,,2z6s2[8:6]/5,,1,,8h[8:6],,,,,,,,,,,,,,,,4h[8:4]/6pp1qq6[8:6]b,,,,,,,,,,,,,,,,
{8}
2,2,2,2,2,2,2,2,26,6,6,6,6,6,6,6,6/4h[8:2],6,6,6,6/2h[8:2],6,6,6,6/A8,A1,A2h[8:5],,,,,C1,
7b/3b,84,7-4[8:1]/3-8[8:1],62,,,15,26,7-4[8:1]b/3-8[8:1]b,84,,,
26,73,8/4>1[8:1],,7-3[8:1]/4,8,2>5[8:1]/7,1,8h[8:2]/2,,1,72,5-8[8:1]/4-1[8:1],63,,,7-4[8:1]b/2-5[8:1]b,81,,,83,72,6-1[8:1]/1-4[8:1],85,,,72,83,1-4[8:1]b/4-7[8:1]b,25,,,83,27,6<1[8:1]/1,,
2-5[8:1]/6,3,7-3[8:1]/2,8,7/1h[8:2],,5,64,7-4[8:1]/3-6[8:1],82,,,
2-5[8:1]b/6-3[8:1]b,71,,,7b/3b,15,6-3[8:1]/2-7[8:1],84,,,84,15,6-3[8:1]/2-7[8:1],15,6-8-2[8:2]b/2-4-6[8:2]b,,,,,,
3-8[8:1],7-4[8:1]b,3>5[8:2],7,3b,,8,8,6-1[8:1]/2-5[8:1],73,C1,,7-4[8:1]b/3-8[8:1]b,26,C1,,
12,34,6-1[8:1]/5-2[8:1],78,,,73,62,1-4[8:1]/5-8[8:1],73,1-7-5[8:2]b/5-3-1[8:2]b,,,,,,
7-4[8:1],3-8[8:1]b,7>4[8:2],3,7b,,1,1,8-5[8:1]/2-5[8:1],73,C1,,7v4[8:1]b/1v4[8:1]b,62,C1f,,
2bpp3>2[8:12]/6bpp7<6[8:12],,,,,,,,,,,,,,,,
1,1,13,1,1/7h[8:6],,A6,A8,E5,A1,A3h[8:2],,5v2[8:2]*v8[8:2],,,,
E
