&title=Allegro Saetta
&artist=天束 vs siromaru
&first=0
&des=GRL
&wholebpm=182
&lv_5=14+
&inote_5=(182){1},
{4}4qq1[4:2]/5pp8[4:2],,,,
{8}2b/7b,,{16}3,3,6,6,1,2,8,7,3,4,6,5,
2b,,,,7,7,1,1,6,5,2,3,7,6,3,4,
8b,,,,2-4[8:1],1,3,8,2b,,,,7-5[8:1],8,6,8,
{4}7b-3[8:1],2-4[8:1]/7b,1/2b-6[8:1],2b/8b,
{16}1b/7b,,8,8,2,1,3,8,2b,,6,4,8,7,6,5,
2b/4b,,3,3,6,5,7,4,6b,,2,8,4,3,2,1,
{16}7b/8b,,,3b/5b,,,4b/7b,,1b/2b,,,6b/8b,,,3b/4b,,
{4}2b/5b<5[4:2],,,,
{12}1,1,1,7,7,7,28,2,2,28,8,8,
{4}3qq8[4:2]/7qq4[4:2],,,,
{16}1b/5b,,3,4,2b,,6,5,7b,,3,5,1b-5[8:1],,78,,
{4}6b/1b,{8}8-4[8:1],7h[8:1],8,,3h[8:1]/5h[8:1],,
26,7h[8:1],5,3,1h[8:1]/2,{16}7,6,15,48,37,26,
{8}1h[8:1]/5h[8:1],,4-8[8:1],2,4,1h[8:1],{16}7,8,6,,
{16}7b/1b,,,2b/3b,,,4b/6b,,7b/5b,,,1b/2b,,,6b/8b,,
{8}1b/5b,,{16}3,4,3,4,2,5,2,5,1,6,1,6,
8,7,1,6,1,8,2,7,2,1,3,8,4,,,,
{8}1b/2b,1b/2b,{16}6,5,7,4,{8}8b,7b/8b,{16}3,4,3,4,
{16}2h[8:1]/5h[8:1],,,4h[8:1]/7h[8:1],,,36,,{8}45,36,{32}1b/8b,27,36,,{8},
7b/8b,{16}3-1[8:1],4,2,,{32}3-5[8:1]/7,6,5,,{8},{32}3-1[8:1]/7,8,1,,{8},{32}37,6,5,,
{16},,6h[8:1],,8,7,8,7,1,6,2,5,3,4,3,,
{16}1b/2b,,6-8[8:1],5,7,,{32}6-4[8:1]/2,3,4,,{8},{32}6-8[8:1]/2,1,8,,{8},{32}62,3,4,,
{16},,3h[8:1],,1,2,1,2,8,3,7,4,5h[8:1]/6h[8:1],,,,
{16}2b/4b,3,,5b/7b,6,,2b/4b,3,,,8,1,7,2,6,,
1b/8b,2,,1b/8b,7,,1b/8b,2,{24}1,8,7,6,5,4,8,1,2,3,4,5,
{16}68,,4,4,5,3,6,2,17,,6,6,1,8,2,7,
{32}36,4,5,6,7,8,1,2,3,4,5,6,7,8,1s5[4:1],2,{32}6,5,4,3,2,1,,,{4},
{1}4b,,,,
{8}3h[16:3]/5h[16:3],,,2h[4:1]/6,,5,5,,
6h[16:3]/4h[16:3],,,7h[4:1]/3,,4,3,2,
{16}17,,6,5,6,4,,2h[8:1],,1,2,,,78,,,
{16}1h[8:1]/5h[8:1],,,3h[8:1]/7h[8:1],,,{8}4V63[6:1]/8V27[6:1],,48,,,
{8}2b/6b,{16}3,5,4,6,5,7,8h[8:1],,7,8,,,16,,
{8}83,{16}7,5,6,4,5,3,1h[8:1],,2,1,,,38,,
1>4[16:1],,,8<5[16:1]/1,,,8,,,,3,3,4,2,4,,
{8}1,78,56,3>8[8:1]/4,,3,{16}7,6,5,4,
{8}1,13,{16}2,1,3,8,{8}1,68,{16}7,8,6,1,
{8}8,43,56,{16}74,7h[8:1]/4,,,6,5,7,1,8,,
1b/2b,,3,3,7,5,8,4,1h[8:1],,,2h[8:1]/3h[8:1],,,6,5,
{4}4qq5[3:1]/7pp6[3:1],,,8b,
{4}3h[4:4],4,,4,
6h[4:4],5,,5,
2h[4:1],1,7h[4:1],8,
45,36,27,,
{8}2b-4[8:1]/1,,28,,6,5,47,,
7-5[8:1]/8,,71,,3,3,24,,
{16}1b/8b,,2,2,6,3,7,4,8,,3,7,2,6,1,5,
8b-4[16:1],,,5b-1[16:1]/8,,,5b,,,,2,3,{4}47,
{16}5h[8:1]/6,,7,5,6,5,6,5,7,,2,4,3,4,3,4,
2,,6,8,7,8,7,8,6,,3,1,2,1,2,1,
3,,7,5,6,5,7,5,6,,2,4,3,4,2,4,
3,,6,8,7,8,6,8,7,,3,1,2,1,3,1,
{16}2b,8,2,8,2,8,2,8,1,7,1,7,1,7,1,7,
2,6,2,6,2,6,2,6,3,5,3,5,3,5,3,5,
4b,6,3,7,4,6,3,7,3,5,2,6,3,5,2,6,
{24}1b/7b,2,3,4,5,6,8,1,2,3,4,5,{4}6/8w4[8:1],8,
{4}2b/6b,{12}1,,1,7,,7,5,,5,
3-7[8:1],,3,{4}1-5[8:1],6b-2[8:1]/1b,4b/6b,
7b/3b,{12}8,,8,2,,2,4-8[8:1],,4,
{12}1b,2,3,48,7,6,52,3,4,5-1[8:1]/7-4[8:1],,,
{4}5b/7b,{12}2,2,2,8,8,8,4,{24},{16}7,6,
{12}53,3,3,1,1,1,7w3[8:1],,,{4}7,
1b/5b,{12}6,6,6,5b/7b,,,3,3,3,
8b/2,8b,8b,8b-4[8:1],8b,8b,{2}8,
{1}3pp8[4:5],,7pp4[4:5],,
{16}3h[16:3]/5,,,6,,,{4}4h[4:1]/7,{8}8,8,,
12,,78,,1-4[8:1]/8-5[8:1],27,1b/8b,,
27,{16}3,6,4,5,3,5,{8}2-5[8:1],6-1[8:1],2,6,
{16}3b,,,7b/8b,,,1b/5h[4:1],,,,6,5,{4}47,
{16}1b/2b,,3,3h[16:1],1,2,3,4,15,,2,2h[16:1],8,1,2,3,
48,,1,1h[16:1],7,8,1,2,38,1,2,3,14,2,3,4,
15,6,7,8,15,2,3,4,51,6,37,8,15,2,37,,
{24}6,5,4,3,2,1,78,6,5,4,3,2,{4}1/8w4[8:1],8b,
2b/6b,{16}71,7,1,1,5,5,3,3,7,7,1,1,
5,,,,4,4,6,6,8,8,4,4,2,2,6,6,
{8}4-8[8:1],4,7-3[8:1],7,2-6[8:1],2,1,1,
{16}4b/8b,,6,5,4b/7b,,3,4,2b/5b,,8,1,2b/7b,8,1,8,
{4}7w3[8:1]/2,7b<1[4:2],,,,
{16}3,4,3,4,2,5,1,6,8,7,1,8,
{24}2,7,2,7,2,7,1,8,1,8,1,8,{16}2,1,3,8,4,7,5,6,
{16}4b,,1,2,3b/4b,,8,7,6b/5b,,1,2,{32}3b/4bw8[8:1],5,6,7,8,1,2,3,
{4}4b,,,,E
