&title=70 Minutes Fighters
&artist=かたぎり
&first=-0.5
&des=MeowHell
&lv_5=14+
&des_5=MeowHell
&inote_5=
(223){4},,,,,,{2}1xqq6[4:9],
{1}7qq4[4:7],
{8},,,,,,,,,,,,B6/E7/B3/E3,
,,Ch[8:3],
,,,,8pp3[4:9],7,{4}6,
{1}2xpp5[4:7],
{8},,,,,,,,,,,,B3/E3/B6/E7,
,,Cfh[8:1],
,,,,6,4,5,3,
{4}7-5[16:1],{8}7,4,7-1[16:1],4,{4}7,
2-4[16:1],{8}2,5,2-8[16:1],5,{4}2,
7-5[16:1],{8}7,3,7-1[16:1],4,{4}7,
2-4[16:1],{8}2,6,2-8[16:1],5,{4}2,
6-8[16:1],6/5,5-1[16:1],5/4,
2-6[16:1],2/8-4[16:1],8/1-5[16:1],1/7,
{8}6,6,4,4,{16}7,3,7,3,7,3,{8}7h[4:1],
,2b,6b,4b,{4}8bw4[16:1],8b/Cf,
{8}2/6,2,3/4,3,6/2,2,3/5,4/6,
7-2[16:1],3-6[16:1],7,3,{2}8xv5[16:1]*v3[16:1],
{8}7/4,7,6/5,5h[16:1]/6h[16:1],7,7,6/4,5/3,
2-7[16:1],6-3[16:1],2,6,1x-4[16:1],1x,7x-5[16:1],7x,
,,3/4,3,6/2,2,3/5,4/6,
7-2[16:1],3-6[16:1],7,3,{2}8xv5[16:1]*v2[16:1],
{8}7/4,7,6/5,6/5,7h[16:1],7,{16}6,5,6,5,
{8}7b,1bs5[8:1],,1bx/Cf,{16},,6,7,8,1,2,3,
{4}4,{8}6/5,6,7/3,3,6/5,6,
8-4[16:1],1-3[16:1],8-6[16:1],1,{4}8,{8}8x/1x,2x/7x,
{4}5xh[4:1],{32}4x,3x,2x,1x,8x,7x,6x,5x,{4}4xh[4:1],{32}5x,6x,7x,8x,1x,2x,3x,4x,
{4}5xh[4:1],{32}4x,3x,2x,1x,8x,7x,6x,5x,{4}4xh[4:1],Cf,
{8}7/5,7,6/2,6,7/5,7,8/4,8,
8-4[16:1],2-6[16:1],8,2,{16}7,,,5/3,,,{8}6/4,
7/3,7,7/3,3,3/6,6,{16}6,5,6,5,
{8}7x,8x-4[16:1]/4xz8[16:1],{32},,,,4bx/8bx,B4/B8,{16}Cf,,,3x,5x,{4}3x,
{8}E7,B5,,B2,B1,E3,,E8,
B8,A7,,A4,D4,E5,B4,B3,
E6h[8:1],,,E3,,B2,E2,B1,
{4}B7h[8:1],E1h[8:1],{8},B4/B5,,,E7,
B8,,B3,B4,E3,,E6,
B5,A6,,A1,D2,E1,B1,B2,
{4}E8h[8:1],B4h[8:1],E6h[8:1],B2h[8:1],
{8}E7/B6,B3/E3,B8/E8,B4/E5,{2}Cfh[4:1],
{16}6,5,6,5,7,4,7,4,6,5,6,5,7,5,7,5,
,,4,5,4,5,3,4,3,4,3,4,{8}2-5[16:1],1-6[16:1],
2,1,3,3,{16}6,5,6,5,{8}7,8/1,
2-6[16:1],2,7-4[16:1],7,{4}1>4[16:1],1/8,
{8}6/5,7,{16}4,5,{8}4,3,3,7-4[16:1],7,
{4}2-7[16:1],2/5-2[16:1],5/4,{8}6,5,
7/4,4,{4}4/5,{8}5/2,5,{4}5/4,
7-3[16:1],7/8-4[16:1],8/7-5[16:1],{8}7/2,2,
{2}2h[4:1]/4x<7[16:1],3h[4:1]/1x<6[16:1],
{4}8x-6[16:1],8x-2[16:1],{2}8x-4[16:1]/4x-8[16:1],
3h[4:1]/1x<6[16:1],2h[4:1]/4x<7[16:1],
{4}5x-7[16:1],5x-3[16:1],5xw1[8:1],{32}5x,B5,C,B1,,,,,{8}6,
{16}6,5,{8}6,7,7/4,4,4/5,5,
{4}6-1[16:1],{8}6,2-5[16:1],,2,{4}7-4[16:1],
7/1,{8}1/8,2,,2h[8:3],{16}7,6,5,4,
{8}3h[8:3],,,4h[4:1],,5,6/3,7/2,
{4}8-4[16:1],1-5[16:1],2-6[16:1],3-7[16:1],
{8},,6/4,6,5,{16}3,4,{8}2,1/8,
{4}7-3[16:1],6-2[16:1],5-1[16:1],{8}4,4h[4:1],
,7-4[8:1],,7,{16},,3,3,{8}3,2x/4x,
1x/8x,1,{4}1/8,7/6,{8}5/4,5,
{4}4/3,2/1,8/7,{16}6,5,6,5,
{8}7,7,8,8,1,1,2,2,
{4}3bh[4:1],{32}A6,D6,A5,D5,A4,D4,A3,D3,A2,D2,A1,D1,A8,D8,A7,D7,{8}A6,Cf,
,,7V58-4[4:1],1-3b[8:1],,,,,{1}8qq5[4:5]/1>4V28[2:1],
{2}3q5[4:1],{4}A5f,{8}7bv4pp5b[8:3],4bpp5b[4:1],
,,{4}2q5[2:1],{2}2xq4[4:1],
{4},7/2<1v3<4b[1:1],{2}7qq5[8:1],
7pp1[8:1],{4}8x,{16}8,7,6,5,
{4}4x/2x<8[8:1],6h[4:1],4x>2[8:1],7h[4:1],
6x>4[8:1],8h[4:1],{8},3,{4}6b,
{8}4/6-2[16:1],4,4,4,4/1-7[16:1],4,4,4,
6/4>2[16:1],6,6,6,6/1q5[16:1],6,6,6,
6-3[16:1],2v7[16:1],6,2,5x,4x,8x-4[16:1],1x-3[16:1],
8-6[16:1],1-5[16:1],A8,A1,7x,6x,5x,4x,
3x,3,3/B6f/E7/B7,3,3,3,{4}3/E1f/B8/B1,
{8}2,2,2/A7f/E8/E7,2,2,2,{4}2/A5f/E6/E5,
8-4[16:1],A2/D2/8-6[16:1],{2}B3/E4/8z4b[4:1],
{16}3xh[4:1],,,1xh[16:5],,,{8}8x,{4}8xh[4:1],6b,
{24}1b/7,2x,3x,4xh[4:1],{48},{16}7,,,{8}8,{24}4b/8,3x,2x,1xh[4:1],{48},{16}8,,,{8}7,
{24}1b/7,2x,3x,4xh[4:1],{48},{16}7,,,{8}8,{24}4b,3x,2x,1x,8x,7x,{16}6x/1x,5x/8x,4x/7x,3x/6x,
5bx/2bx,,,3x/6x,,,{8}7x/4x,{24}2b,3,4,5xh[4:1],,,{4}8h[4:1],
{24}5b,4,3,2xh[4:1],,,{4}8h[4:1],{24}2b,3,4,5xh[2:1],,,8,7,{12}6,{24}4,3,
{4}2b,7b/2b,{24}5b/1,6,7,8xh[4:1],{48},{16}1,,,{8}2,
{24}8b/2,7,6,5xh[4:1],{48},{16}2,,,{8}1,{24}5b,6,7,8,,,{8}2,2,
{16}3b/1b,,,6b/8b,,,{8}5b/4b,{16}2b/1b,,,3b/6b,,,{8}7b/8b,
{12}2bx,2,2,7bx,7,7,5bx,5,5,{96}4bx,,,3,,,{32}2,1,8/4,7/3,6/2,5/1,
{1}4bxpp1[4:27]/8bxpp5[4:27],
,,,,,,{4},,{32}B4h[32:1],
B5,,,,,,,,,,,,,,,{4}6h[4:1],
4,{8}5h[4:1],3,{4}3,
7h[4:1],{8}5,5h[4:1],,4h[4:1],{4}3,
7h[4:1],1,{8}8h[4:1],2,{4}2,
6h[4:1],{8}8,8h[4:1],,1h[4:1],{4}2,
5/6,6/5,4/3,4/3,
7/8,8/7,2/1,2/1,
{8}6,6,4,4,5,5,3,3h[8:7],
,6b,6b,6b,6b-2b[16:1],6b,{32}6b,Cf,,,,,,,{8}1>3[16:1],
7h[16:1],1q5[16:1],8h[16:1],1,7,7-4[16:1],2-5[16:1],
7>2[8:1],2,,,,4,6,8/2,
2-4[16:1],6,2-8[16:1],6,2x,6-4[16:1],{4}6-2[16:1],
{8},,7q4[4:1]/8>4[4:1],8/7,,,,,8<6[16:1],
2h[16:1],8p4[16:1],1h[16:1],8,2,2-5[16:1],7-4[16:1],
2,7>2[8:1],,,,,7/3,3/7,
7-5[16:1],3,7-1[16:1],3,{4}7x,{16}5,4,5,4,
{8}6b,2bz6b[8:1]/7bs3b[8:1],,2bx/7bx,{16},,,,5,4,5,4,
{8}6h[8:1],{16}3,4,{8}2h[8:1],{16}6,5,{8}7h[8:1],{16}3,4,{8}1h[8:1],8h[8:1],
2-5[16:1],7<4[16:1],{4}2xp4[4:1],{16},,,,5x,6,7,8,
{4}1b,{16}1/5,8/4,7/3,6/2,1bh[8:1]/5bh[8:1],,,3bh[8:1]/7bh[8:1],,,{8}Cf/B7/B3,
{16},,6,5,{8}6,4/7,{4}2>5[16:1]/5<8[16:1],2x/5x,
{8}2h[8:1],{16}6,5,{8}8h[8:1],{16}3,4,{4}1h[8:1],{8}7<4[16:1],2pp4[16:1],
7xs3s7b[2:1],,,,,1x,,2x,
6/5,6,7/4,4,8/3,8,1/2,1<7[16:1]/2>4[16:1],
8/3,2xv5[16:1]/1xv6[16:1],,2bx/1bx/Cf,,,{4}7bx/3bx,
{16}5b,4,5,4,6,5,6,5,8,7,6,5,1,2,3,4,
7b,5,7,5,6,4,6,4,8,1,2,3,1,2,3,4,
8b,7,6,5,1,2,3,4,7,5,6,4,7,5,6,4,
{8}8b,2b,6b,4b,8b/1b,7b/5b,4b/2b,6b/3b,
{4}8b/1b,{16}7,5,7,5,6,4,6,4,5,3,5,3,
6b,7,8,1,5,4,3,2,5,6,7,8,4,3,2,1,
{8}7b-4[16:1]*-4[16:1],7,1b-6[16:1]*-6[16:1],1,8b-3[16:1]*-3[16:1],8,2b,{24}2x,3x,4x,
5x,6x,7x,8x,1x,2x,3x,4x,5x,6x,7x,8x,1x,2x,3x,4x,5x,6x,7x-3b[16:1],8x,1x,2x,3x,4x,
{1}5x/7x/Cf,
E
