&title=舞萌玩累了,来开把Minecraft吧
&artist=Mojang studios
&first=-0.03
&des=努尔
&des_7=努尔
&lv_7=史
&inote_7=(200){4},{1},,,,,{4},{16},,,C,
{1},,,{4},{1}B1,
{8},,,,,,,,1?>5[8:3],
,,5?<1[8:3],,,{4}1?>5[8:3],
{8},5?<1[8:3],,,1?>5[8:3],,,5?<1[8:3],
,,{4}1?>5[8:3],,,,,{2}B1,
{1},,{16},3,
{1},{4},{8}E7,
{1},,{4},,{1}6?-3[3.375##1.575],
,,,,,,,,{4},1v3[4:1]*>1[4:3],
,,,,{2}1v4[8:3]*>1[4:3],
{4},,,1-5[8:3]*>1[4:3],
,,,,{1}1v6[2:1]*>1[4:3],
{4},1v7[8:5]*>1[4:3],,,,,{2}1v8[8:5]*>1[4:3],
{4},,,1v3[4:1]*>1[4:3],
{16},,,,,,,,,,,,,,,,1v4[8:3]*>1[4:3],
,,,,,,,,,,,,Cf,{1},,{4},,{16},,,E7,
,,,,,,,,,,,,,,,,,Cfh[8:19],
{1},,{4},,,{2}1?-4[8:1],
{4},Cfh[16:39],,,,,,,,,,,{1}4?-1[8:1],
{16},E7,,,,,,,{2}E7,
{8}A6,,,,,,,Cfh[16:41],
{1},,{4},,,Cfh[4:9],
,,,,,,,,,,,,1?-4[8:1],
,,4,
{1},{4},{16},5,
,,,,,,{4}B2,
{16},,,,,E4,,,,,,,,,{8}E4,
{16},E4,,E4,,E4,,,,,,,,,,E4,
,,,,,,{8}E4,,,,,,,,2,
,,{4}4?-1[8:1],
{8},E7h[16:5],{16},,,,,,,,,,,,,,,,,4,
,,,,,,,,,,,7,
,,,,,,,,,,,,,,{2}B8,
E4,
{16}2,,,,,,,,,1?-4[8:1],,,,,,,,,,,,,{8}E6,
{16},,,,,C,,,,,,,{4}C,
{1},{4},{16},6,
,,,,,,,,,,{2}E4,
{16},,,,,,,,,,,,,,,D7,
,,,,,,,,{2}E4,
{16},2,,,,,,,,,,,{4}3?p7[2:1],
,,,E7h[4:9],
,,,3?v2[2:1],
{8},,,,,,,,,E7,
E7h[4:17],3?v2[8:3],,,,,,,,,,,,,,,{4}2?-7[4:1],
{8},,,6?-3[8:1],
{16},,,,,D6/A5/D5/A4/D4,,,,,,,,,,,,,,,,,,,{2}1?-4[8:1],
{8},A3,,,,,,,,B6fh[8:7],
,,,,,,,,{4}B7fh[16:15],
,,,,{2}B6fh[1:1],
{8},,,,,,,3-8[8:1]/7-4[8:1],
,3/7,,2/6,{24}2/6,3/7,4/8,1/5,,,,,,{8}3/8-4[8:1],
7/4-8[8:1],3/8,2,{32}1,2,3,4,5,6,7,8,{8}1b/5b,,6/3-8[8:1],
4,3/6-1[8:1],5,3/6,4,8/2-6[8:1],1,2/7-3[8:1],
,7/1w5[1.8##0.15],,,,,,,,,,,,1b,
{24},,,2,3,4,
7,6,5,2h[8:1],{48},,,,{16}1,2,{8}1,3/8,{16}2,4,3,5,4,6,
5,7,1,4,3,8,5-2[8:1],6,4,7,{8}5b-8[8:1],,1b/5b,
,2/6,{16},4,{8}C,,,,,,,,,,,,,{4}D6/A5/D5/A4/D4/E7h[16:47],
2?-7[8:1],,,,,{2}2?-7[8:1],
{4},6?-3[4:1],,,,,,E7h[8:7]/2?v5[4:3],
{8},,,,,,A6,B6,
(160){16},,,E7,,,,,{8}E6,4,,,,,,,B8,
,,E4,
{16},,,2,,,,,,,,E5,,,{8}4?-2[8:1],
,,,,,C,,C,
{16},,,,,,,,,,,,,,,E7,
,,,,{4}E4,{16},2,,,,,,,,,,E7,
,,,,,,,,{4}Cfh[16:39],
{1},,{4},,{16},1?-3[8:1],
,,,E7h[8:1],,,,,,,,7?z3[4:1],
,,,,,,{8}E7h[16:95],7?-2[8:1],
{16},,,,,7?-2[8:1],,,,,,,,,{8}1?v3[4:1],
{16},,,,,,,,,,,,,,,1?V35[16:5],
,,,,,,,,,,,,{4}3?-6[8:1],
{1},{4},,{16},,,2?s6[4:1],
,,,,,,,,,,,,,,,,,,{8}1?-4[8:1],
,,,D7h[4:1],,,,,{4}E6,
2?-4[8:1],{2}E7,
{8},D7h[8:1],{24},,,,,,,,,,,,,,,,,,{12}B3,
B3,B3,B3,B3/E7h[12:1],B3,B3,B3,B3,B3,B3,B3f,
,,,,,,,,,{4}B6h[8:1]/4?-1[8:1],
,,,E7h[4:1],
{8},E7h[4:1],{16},,,4x,4x/6?-1[8:1],,,4x,{4}6?-1[8:1],
{16},,,,,,,,,,,,,Cfh[16:11],,,,,,,,,,,,,,Cfh[4:3],
,,,,,,,,,,,,,,B1,
E2,,,C,B3/8?-3[8:1],
,,,,,,,,,,,8?-3[8:1],,,,,,,{8}D7h[4:1],
{16},,,,,,,,,,,,,E7h[16:3],
,,,,,,,,,,,,,,,,,E7h[16:11]/2?-7[16:5],
,,,,,,,2?-7[8:1],,,,,{8}E7h[8:1],
,,,,3?-8[8:1],{16},,,E7h[4:1],
,,,,,,,,,E7,,,{4}E7h[16:11],
{16},,,,,,,,,E7h[16:5],,3?v8[8:1],,,,,,,,,{8}8?-3[8:1],
E7h[8:1],,,3?-6[8:1],E7h[8:1],
{16},,4?-1[8:1],E7h[16:5],,,,,,,,,{4}E7h[16:3],
{16},2?-7[8:1],,,,E7h[8:1],,,,,,,{4}E7h[16:3],
{16},,,E7h[16:5],,,,,,E7h[1:1]/2?v3[16:3],,,,,,,,,,,,,{8}2?-7[4:1],
{16},,,,,,,E7h[8:1],
,,E7h[2:1],3?v8[16:3],,,,,,,,,,,,,{4}2?-7[8:1],
{8}E7h[16:3],2?-7[8:1],,,,5x/7?>3v5b[8:1],
{16},,,,,,1?s5[8:1],1?s5[8:1],1?s5[8:1],1?s5[8:1],1?s5[8:1],1?s5[8:1],1?s5[8:1],1?s5[8:1],{8}1?s5[8:1],
,,{4}A1/B2/B3/E4/B4/E5/E6/B7/B5/B6/E7/E8/B8/E1/B1/E3/E2/A2/D3/A3/D4/A4/D5/A5/D6/A6/D7/A7/D8/A8/D1/D2/Cf,
E
