&title=人マニア
&artist=原口沙輔
&first=0.82
&des=
&seek=0.00
&wait=0.00
&des_1=音合わせ譜面
&des_5=じょーじ
&wholebpm=150
&demo_seek=45.3
&demo_len=20.2
&lv_1=音
&lv_5=13+
&inote_1=(150)
{4}
1,1,1,1,1,1,1,1,1,1,1,1,1,1,1,1,1,1,1,1,1,1,1,1,1,1,1,1,1,1,1,1,
1,1,1,1,1,1,1,1,1,1,1,1,1,1,1,1,1,1,1,1,1,1,1,1,1,1,1,1,1,1,1,1,
1,1,1,1,1,1,1,1,1,1,1,1,1,1,1,1,1,1,1,1,1,1,1,1,1,1,1,1,1,1,1,1,
1,1,1,1,1,1,1,1,1,1,1,1,1,1,1,1,1,1,1,1,1,1,1,1,1,1,1,1,1,1,1,1,
E
&inote_5=(150)
{4}
,,,,
,,,,
{8}1x-3[8:1]/5x-7[8:1],,1-5[8:1]/5,,{16}1,,8,8,4h[8:3],,,,
{8}2bhx[8:1],,4hbx[8:1]/6hbx[8:1],,1b-4[8:1]/8b-5[8:1],2x/7x,
,,
{16}
2b/6b,,3,3,5-1[8:1],,1,,6,,6,,25,,3,,46,,7,,65,,4,,57,,8,,17,,2h[8:1],,5hx[8:1],,4,4,6-4[8:1],,7,,1,,2,,38,,7,,16,,2,,
5^3-1[4:1]/3,,6,,7V51[4:1],,
7,,
,,,,
{8}4b,{16}8,8,5^2[8:1],,6,,{8}8,7,1x/6,2,{16}53,,2,,34,,5,,42,,1,,82,,7h[8:1],,4hx[8:1],,5,5,3-5[8:1],,2,,8,,7,,61,,2,,
{8}3hx[8:1]/5hx[8:1],,5hx[8:1]/7hx[8:1],,1>5[4:1]/2,38,
,,
{8}6hx[4:3],,,,5h[4:3],,,,4h[8:6],,,,3h[8:3],,,,4h[4:2],,,,5h[4:2],,,,6h[8:2],,5,6,4^6[8:1]/5^3[8:1],,
,,
{8}1b-5[8:1],,1b,,5-3[8:1]/6,,7h[8:3]/5,,5,4h[8:1],5h[8:3],4,3h[4:1],,5-7^8[8:1],,2b^4[8:1],,2,,21,18,7/8-2[8:1],,
{8}8b/4b-8[8:1],,4b/7b^4V68[8:3],,
,,
1,,
{16}3hx[16:3],,,4,,,2V48[4:1]/4,,3-1[8:1]/5,,
,,
,,,,
{16}6hx[16:3],,,5,,,5-1[8:1]b/7,,6-8[8:1]b/4,,
5bx,,
6bx,,,,
{8}4w8[8:1]/3,,
,,5w1[8:1]/6,,
,,
3,4,5,6h[8:2],4h[8:1],,
46,,
{16}24,,6,5,7,,3,4,2,,7h[16:3],1h[8:1],
,,26,,37,,4,6,2,,5,3h[16:3],8h[8:1],,,46,,,1,,
{16}4x,3x,2x/6x,1x/5x,
4x/8x,5x,6x/2x,3x/7x,
4x/8x,3x,2x/6x,1x/5x,
4x/8x,1x,2x/6x,3x/7x,8bx/4hbx[4:2],,,,2,,,,
{8}5w1[8:1]b,6,5b,,
{16}3x-1[8:1]/5x,,4,7,3,,4h[4:1],,7h[8:1],,
,,7v4[8:1]/4,,,,4,,5,,6V84[4:1],,7,,4x,,
,,1^6[8:1],,,,2b,,3,3,5,,6,5,7,,2,2,
{16}1,,28,,7h[8:1]/3,,4,,3h[8:1]/5,,6-1[8:1],,1,1,6-4[8:1],,4V68[4:1],4,6,,{32}1bV38[4:1]b,2b,3b,,{8},
{8},,4,5,2/6-4[8:1],,2V48[4:1],3x,8x,7,6,15,6h[4:1]/2^5[8:1],,2x,1,8,7h[8:1]/5x,{16}3,3,{8}5,4x/6x,3hx[8:1]/7x,
{16}4x,2h[8:1],6h[16:1],,2x,8h[8:1],4h[16:1],,8x-2[8:1]*v5[8:1]/4x,,
,,
,,,,
{8}3x/4hx[16:3],2,3h[8:1]/4,5,4h[16:3]/3,2,34,45,5h[16:3]/6,7,6h[8:1]/5,4,5h[16:3]/6,8h[4:1],3h[8:1],
,
{16}38,3,5,5,4h[8:1],,{32}6,5,6,,{16}4,4,7,7,3h[8:1],,5,5,{8}1b-7b[8:1],,5b-1b[8:1],,2b,2hb[8:1],{32}1bx,3bx/8bx,4bx/7bx,5bx/6bx,{8},
{8}4h[8:12]/3h[8:5],,,,,
,,5,5h[8:12],,,,
,,,,6h[8:10],,,,
,,,4,4h[4:1],,,,4v1[4:1]/6v1[4:1],,
,,
,,
,,,,
,,
,,,,
,,,,3/5h[8:8],,{32}1x,8x,7x,6x,{8},
,,,,7<1[4:2],,
,,
,,
8bV24V68>8q1[4:12],,
{4}
,,,,
,,,,
,,,,
,,,,
{32}2x>8[32:6],3x<8[32:5],4x<8[32:4],5h[32:5],,,,,{8},,
{32}1x>7[32:6],2x>7[32:5],3x<7[32:3],4h[32:5],,,,,{8},,
{32}8x>6[32:6],1x>6[32:5],2x>6[32:3],3h[32:5],,,,,{8},,
{32}1x>7[32:6],2x>7[32:5],3x<7[32:3],4h[32:5],,,,,{8},,
{16}1x,2x,3x/7x,4x/8x,5x/1x,8x,3x/7x,2x/6x,1x/5x,2x,3x/7x,4x/8x,5x/1x,8x,3x/7x,2x/6x,
1bx/5hb[4:2],,,,7,,,,
{8}4,,45,,{32}3/8h[32:16],4,5h[32:6],,{8},,,{32}2h[32:12],7,6,5h[32:9],{8},,,
{8}25,8xs4[16:6]/7x,8x/7xz3[16:4]b,8x/7x,
,,
,,
{16}2b/6b,,3,3,5,,6,5,7,,2,2,
{16}1,,28,,7h[8:1]/3,,4,,3h[8:1]/5,,6-1[8:1],,1,1,6-4[8:1],,4V68[4:1],4,6,,{32}1bV38[4:1]b,2b,3b,,{8},
{8},,4,5,2/6-4[8:1],,2V48[4:1],3x,8x,7,6,15,6h[4:1]/2^5[8:1],,2x,1,8,7h[8:1]/5x,{16}3,3,{8}5,4x/6x,3hx[8:1]/7x,
{16}4x,2h[8:1],6h[16:1],,2x,8h[8:1],4h[16:1],,
{8}8x/4x^6[8:1]*v1[8:1],,
,,
{16}3bx/4bx,,7,8h[16:3],7h[16:3],,,,3x/4x,,8x,7x,8xp4[8:1],,,,
{8}8x/3x,2,3-1[8:1]/5p1[8:1],4,5pp6[16:3]/3x,,
4x,,
{16}1q5[8:1],,5,5,1,,6,6,{8}8p4[8:1],2,83,1,2xv8[8:1],8h[8:1],2x,,
{16}7^4[8:1],7,4pp6[16:3],,{8}7x/1x,3,1xv3[8:1]*v8[8:1],,
{8},,56,7,81,2,35,6,5pp8[4:1]/7,18,2,3,4h[4:1],,
{16}3x,4,5,2,4,3,5h[8:1],,6x,5,4<2[4:1],,7,,{8}4x/6x,,5xpp7[16:3],5x^3[8:1],5x,5x,,
{8}1xv4[8:1]*v6[8:1]/6x,,1b,,
{1},,E
