&title=ERIS
&artist=Grand Thaw
&first=0
&des=frefla
&wholebpm=162
&lv_6=14+
&inote_6=(120){1},
{8},,,,,,,
{32},,2,3,
{4}4qq1[4:2],
{32},,,,,,,7,6,
{4}5pp8[4:2],
{32},,,,,,,1,2,3,,,,,,2,3,4,,,,,,3,4,5,,,,,,
{8}6,6,6h[4:1],,
{16},,3,4,{8}3,3,2,2,
{32}8,7,6h[32:14],,,,,,1,,,,1,,,,2,,,,,,,,2,,,,,,,,1,2,
3h[32:6],,,,,,,,,,,,,,2,3,4h[32:6],,,,,,,,,,,,,,6,5,4h[32:6],,,,,,,,,,,,,,5,4,3h[32:6],,,,,,,,,,,,,,
{32}8,1,2h[32:14],,,,,,,,,,6,,6,,5,,,,6,,,,7,,,,8,,,,8,7,6h[32:14],,,,,,3,,,,4,,,,3,,,,,,,,2,,,,,,,,2,3,4h[32:6],,,,,,,,,,,,,,1,2,3h[32:6],,,,,,,,,,,,,,6,5,4h[32:6],,,,,,,,,,,,,,7,6,5h[32:6],,,,,,,,,,,,,,
{8}1-5[8:1],3,1/8-4[8:1],6,1,,{32}1w5[4:4],,1,1,1,,,,
(100){1},
(162){4},,,{24},,1,2,3,4,
{12}57,,,6,6,6,6/3b,,,7,,7,4,4,4,42,2,2,2/8b,,,8,{24}8,7,6,5,
{12}42,3,3,35,5,5,5/7b,,,1,,{24}1,2,{12}3b,7,{24}7/2,3,{12}4b,8,{24}8/3,4,{12}5b,,,
{24}1b,2,3,4/1b,2,3,
{12}4/2,2,2,26,6,6,6/8b,,,2,,,{24}2b,3,{12}4/7,7,{24}7/3b,4,{12}5/8,8,{24}8/4b,5,{12}6,,{24}8b,7,6,5/8b,7,6,
{12}57,7,7,73,3,3,3/1b,,,2,,,
{30}2b,3,4,5,6,2b,3,4,5,6,1b,2,3,4,5,1b,2,3,4,5,{12},
{24}3b,2,1,8,1,2,
{12}35,,,4,4,4,4/8b,,,7,,7,3,3,3,31,1,1,1/5b,,,
{24}5b,6,7,8,7,6,
{12}5/3,3,3,37,7,7,7/1b,,,1,,{24}1,2,{12}3b,6,{24}6/2,3,{12}4b,7,{24}7/3,4,{12}5b,,,
{24}4b,3,2,1,2,3,
{12}46,6,6,62,2,2,2/8b,,,8,,,{24}8b,7,{12}63,3,{24}3/7b,6,{12}52,2,{24}2/6b,5,{12}4,,
{24}6b,7,8,1,8,7,
{12}64,4,4,24,2,2,2/8b,,,8,,,
{30}2,3,4,5,6,2,3,4,5,6,8,7,6,5,4,8,7,6,5,4,{12},2,2,2,
{4}2h[4:4],,6,6,7h[4:4],,3,2,1h[4:4],,{6}5,6,7,
{4}7h[4:2],,,
{12}2,,2,{4}2pp5[4:3],,5,6,7qq4[4:3],{12}4,3,2,1,,1,,1,,
{4}1pp4[4:3],,5,6,7qq4[4:3],,8q4[4:1],,
{4}1,{24}1b,2,3,4/1b,2,3,4h[4:1],,,,,,,3,2,1/4b,3,2,1h[8:1],,,,,,
{12}24,35,46,
{24}7b,6,5,4,8b,7,6,5,1b,8,7,6,
{4}3h[8:1]/5h[8:1],{12}24,35,46,{24}5b,6,7,8,4b,5,6,7,3b,4,5,6,
{4}7h[8:1]/5h[8:1],{12}57,57,57,46,46,46,35,35,35,
{4}2b/6b,{24}2,3,7,8,3,4,{4}8b,48,37,{24}7,6,2,1,6,5,1b,,,,,,2,3,6,7,1,2,5b,,,,,,6,5,2,1,7,6,3b,,,,,,
{12}26,26,37,37,,,46,46,35,{4}3q8[8:1]/5p8[8:1],,
{12}1,2,3,1,2,3,1,2,3,1,2,3,2,3,4,2,3,4,2,3,4,2,3,4,3,4,5,3,4,5,4,5,6,4,5,6,5,6,7,5,6,7,5,6,7,5,6,7,6,7,8,6,7,8,7,8,1,7,8,1,8,1,2,8,1,2,
{12}1,3,2,4,3,5,2,4,3,5,4,6,3,5,4,6,5,7,4,6,5,7,6,8,7,1,8,2,1,3,
{24}24,,3,5,3,,46,,7,5,7,,68,,7,1,7,,28,,3,1,3,,
{12}2-4[8:1]/6,,,2-5[8:1]/7,7,7,2-6[8:1]/6,,,2-5[8:1]/7,7,7,2/8-6[8:1],,8,8-5[8:1]/3,3,3,8-4[8:1]/2,,,8-5[8:1]/1,,,1-3[8:1],,,1-4[8:1]/7,7,7,1-5[8:1]/6,,,1,,7,
{32}8,7,6,5,4,3,2,1,8,7,6,5,4,3,2,1,83,4,5,6,7,8,1,2,
{12}3/6,7,8,
{12}8-6[8:1]/3,,,8-5[8:1]/3,2,1,8-4[8:1]/1,,,8/3,2,1,
{32}1,2,3,4,5,6,7,8,16,5,4,3,2,1,8,7,62,3,4,5,6,7,8,1,
{12}2/5,6,7,
{12}7-5[8:1]/1,,,7-4[8:1]/1,2,3,7-3[8:1]/3,,,7/3,2,1,
{12}15,5,5,45,4,4,34,3,3,43,4,4,
{12}6,6,{24}3,4,{12}6,6,{24}2,3,{12}6,6,{24}3,4,{12}6,6,{24}2,3,
{12}4h[8:1]/6h[8:1],,,46,46,46,3h[8:1]/5h[8:1],,,35,35,35,
{12}2,2,{24}6,5,{12}2,2,{24}7,6,{12}2,2,{24}6,5,{12}2,2,{24}7,6,
{32}2,3,4,5,6,7,8,1,{12}2/6,6,6,{32}6,5,4,3,2,1,8,7,{12}6/2,2,2,
{12}2,2,{24}6,5,{12}42,2,{24}7,6,{12}52,2,{24}6,5,{12}42,2,{24}7,6,{12}52,5,{24}2,3,{12}54,5,{24}1,2,{12}35,5,{24}2,3,{12}54,5,{24}1,2,
3h[8:1]/5h[8:1],,,,,,{12}46,46,46,37,,,35,35,35,26,,,
{32}2b,3,8b,7,1b,2,7b,6,2b,3,4,5,,,,,8b,7,4b,3,7b,6,3b,2,8b,7,6,5,,,,,1b,2,6b,5,2b,3,7b,6,3b,4,5,6,,,7b,6,5,4,,,3b,4,5,6,8b,7,6,5,4,,,,1b,2,5b,6,2b,3,7b,6,1b,2,3,4,,,,,8b,7,4b,3,7b,6,2b,3,7b,6,5,4,,,,,3b,4,6b,7,2b,3,6b,5,3b,2,1,8,,,6b,7,8,1,,,2b,1,8,7,5b,6,7,8,1,,,,
{4}3,4,4,6,6,5,5,6h[4:4],,,,{12}2,4,3,7,5,6,1,3,2,8b,,,
(120)
{4},,{32}2,3,4h[4:1],,,,,,,,,,,,,,3,4,5h[4:1],,,,,,,,,,,,,,4,5,6h[4:1],,,,,,,,,,,,,,7,6,5h[4:1],,,,,,,,,,,,,,6,5,4h[4:1],,,,,,,,,,,,,,5,4,3h[4:1],,,,,,,,,,,,,,2,3,4h[4:1],,,,,,,,,,,,,,3,4,5h[4:1],,,,,,,,,,,,,,
{4}7h[4:4],{16},,3,3,3,,2,,2,,1,,2h[4:4],,,,7,,6,,7,,,,5,,,,6h[4:2],
,,,,,,,4h[4:2],,,,,,,,8h[4:2],,,,,,,,1h[4:2],,,,,,,,8w4[4:4],,,,,,,,,,,,,,,,,,,,,,,1w5[4:7],,,,,,,,,,,,,,,,,,,,,,,,,,
(1){1},E
&inote_7=
