&title=Blue Zenith (Cut Ver)
&artist=xi
&first=2.29
&des=speckles
&lv_5=13+
&inote_5={4}(200)5,5,5,5,
5,5,5,5,
4,4,4,4,
4,4,4,4,
5/3,4/6,5/3,6/4,
5/3,5,5,5,
5,3,3,3,
3/B7h[4:3],4,5,{8}3,2,
{4}1b/8v5[16:1],3-1[16:1],7-4[16:1],3-8[16:1],
1>5[4:1],5>1[4:1],8-6[16:1],8-4[16:1],
3>8[16:1],5-7[16:1],4-2[16:1],5-7[16:1],
4>8[4:1],8>4[4:1],5-7[16:1],5-1[16:1],
{16}A2/5b<7[16:1],E3,{8}E4,{16}B1/5v8[16:1],B2,{8}E3,{16}5/A1,D2,{8}A2,4,4,
{16}3/8,7x,{8}6x,{16}8/2,7x,{8}6x,{16}3,5,3,6,3,7,{8}3,
8bx/1bx,1/8,1/8,1,6bx/3bx,6/3,6/3,2,
5bx/3h[8:1],6,1/7h[8:1],2,3bx/5bx,5/3,{4}7bx/1-4[8:1],
1bx/Ch[8:1],{8}6x,2,3,8,{4}8-5[8:1],
8bx/Ch[8:1],{8}3,7,6,5,{4}2-5[8:1],
2bx/Ch[8:1],{8}6,7,3,7,{4}6-1[8:1],
6bx/Ch[8:1],{8}3,7,4/5,6,{4}2/5-8[8:1],
5bx/Ch[8:1],{8}3,7,4/3,6,{4}2-7[8:1],
2bx/Ch[8:1],{8}5,3,6/4,2,{4}8-5[8:1],
8bx/Ch[8:1],{8}1,4,2/7,6,{4}6-3[8:1],
6bx/Ch[8:1],{8}2,7,4/5,8/7,2>5[8:1],6x,
{4}2b/Ch[8:1],{8}8,2,7/5,3/4,6<1[8:1],4,
{4}6b/Ch[8:1],{8}2,6,4/5,7/1,3,8,
{4}6h[4:3],{8}2,2,3,3,4,4,
{4}3h[2:1],{8}6,6,{4}8h[2:1],{8}4,4,
{4}2h[1:1],6,7,5,
8h[2:1],4,Ch[2:1],5,
{8}7b,6,5/1,2,3/8,7,6/2,3,
{16}4,8,4,8,3,7,3,7,2,6,2,6,{32}2-5b[8:1],3x,4x,5x,6x,7x,8x,1x,
{4}2/Ch[8:1],{8}7x,1,6/5,2,{4}8-5[8:1],
Ch[8:1]/8b-4[8:1],{8}8,2,7x,3,{4}5-8[8:1],
Ch[8:1]/5b-1[8:1],{8}5,3,6,4,{4}4-1[8:1],
Ch[8:1]/4b-8[8:1],{8}4,6,3,5,1-4[8:1],7x,
{4}Ch[8:1]/1b-5[8:1],{8}1,7,2,6,7-4[8:1],2,
{4}Ch[8:1]/7b-1[8:1],{8}7,3,6,2,5-7[8:1],3,
{4}Ch[8:1]/5bq1[8:1],{8}5,3,7,2,4p8[8:1],7,
{4}Ch[8:1]/4b>1[8:1],{8}4,6,4,3,2/8,5,
8/2,6,7/1,4,6h[8:3],3,{4}3,
{8}7h[8:3],2,{4}2,{8}3h[8:3],7,{4}7,
{8}2h[8:3],8,{4}8,{8}6h[8:3],4,{4}4,
{16}8,1,8,1,8,1,8,1,8,7,6,5,{32}1,2,3,4,5,6,7,8,
{8}1b/5x,1/5,2/6,2/6,3/7,3/7,4/8,{16}4/8,7/3,
{8}6b/2b,6/2,5/1,1/5,2/6,2/6,3/7,3/7,
{16}1b/5bh[8:3],2,{8}3,{4}3,{16}8b/2bh[8:3],7,{8}6,{4}6,
{16}3b/8bh[8:3],4,{8}5,5,5,3-5[16:1]/7-5[16:0],8/2,{4}7/3,
{8}2/8bv5[16:1],3,{4}8/4,{8}7/3bh[4:1],7,7,2x,
8/B1,7/E3,{4}6/B4,{8}7/4x,3/6,2/5,3,
{16}8,7,6,5,8,1,2,3,7/4,6,5,4,3,2,1,8,
7/2,3,4,5,6,7,8,1,{8}2/5bv8[16:1],4,{4}5b,
{8}6/2bh[4:1],6,,1,4/3,4/5,5/6,3,
6/1x,2/7,3/8,2,{16}5,6,7,8,4,3,2,1,
5/8,6,7,8,1,2,3,4,5/2,1,8,7,6,5,4,3,
2,1,8,7,6,5,4,3,2,1,8,7,6,5/1x,4/8x,3/7x,
{4}6x-4[16:1]/2-4[16:1],6/2,{8}1x/8h[4:1],1,1,2,
3/6,5,4/3,{16}8/1,7/2,{8}6/3,5/4,6/3,4/5,
{16}8/2,7,6,5,4,3,2,1,8/4,5,6,7,8,1,2,3,
4,5,6,7,8,1,2,3,{8}4/7,7/4,{4}7/4>1[16:1],
{8}4b/8b,8,6/5,6/5,2,2,7/8,7/8,
{16}7/8,1/6,{8}2/5,2/5,4/7,{16}4/7,6x/3x,{8}5/2,2/5,6,
{32}1,2,3,4,{8},{4}6/7,{32}8,7,6,5,{8},{4}3/2,
{32}1,2,3,4,8,7,6,5,1,2,3,4,8,7,6,5,{4}1w5[16:1],1b,
{1}8bh[1:2],
{2}B6h[4:7],B5h[4:5],
{1}B4h[4:3],
{4}8h[4:1],3h[4:1],{8}6h[8:1],5h[8:1],6h[8:1],1h[8:5],
{2},7h[2:1],
{1}2b-8-2-8-2-5b[4:15],
