&title=ミラージュ・フレイグランス
&artist=Sound piercer “Espitz”
&first=0.09
&lv_5=14+
&des_5=Ic_
&inote_5=
(158){4},{16},,,,,,,,,,,,1,
1,,2bx/8bxv3-5-7[16:27],,,,,{4}1,1,
1,2,2,2,
{16}2,{32},,,,B1,B2,{16}E3,,,D6,,,{8}D4,{16},D7,,,{8}D3,
D8,{12}E2,E8,B2,B7,B3,B6,{48}E1,,,E2,,,{16}E3,E4,
6x,6x,,5b/3bp7-1-4[16:27],,,,,{4}5,5,
5,5,6,6,
6,{16}5,E4/B3,,4,{8}E6/B6,{16}6,E3/B2,,3,{8}E7/B7,
{16}6,4,5,4,6x,3x,5x,4x,7x,3x,8x,2,{32}1,8,{16}7,1,1,
1,1,1,1,{8}2bx/8bx,2-5[8:1],{16}1,1,,8,,,{8}6-1[8:1],
{16}5,5,,4,,,{8}3-8[8:1],{16}4,4,,5,,6,5,4h[16:3],
,,,,{8}3/5,6-1[8:1],{16}2,2,,3,,,{8}3-8[8:1],
{16}7,7,,6,,,{8}7,{16}2,3,4,8h[16:7],{32},,,,A6,D6,A5,D5,
A4,D4,A3,D3,{8}A2,7x/1x,8-3[8:1],{16}7,7,,6,,,{8}5-2[8:1],
{16}6,6,,7,,,{8}8-5[8:1],{16}1,1,,2,,2,1,8h[16:3],
,,{8}6,2/5,5-2[8:1],{16}6,6,,7,,,{8}8h[16:3],
{16}4,4,,3,4,3,6,5,6,2,4,3,7,5,6,1,
8,7x/2x,,,3x/5x,B3,,6x/4x,{8}B6,{16}2x/5x,B1/B2,,7x/4x,{8}B8/B7,
{16}1,8,{8}1,{16}2/7,,,3/5,,,{8}6/4-2<1-7q3[8:9],{32},,,,,,,,,,7,
6,{8}5,{32}B5,B6,,,,,,,,,,,{8}5,{16}5,,,6,
,,{8}7,{16}7/4,,,2/5,,,{8}1/8v5>4-7[8:7],{32},,,,B4,B3,,,,,,,B1,
B2,{4},,,{16},4x,
7x/4x,,5x,2bx/5bx,,,2,,,{8}7/2-4<6-3>1[8:9],{16},,,,8,
7,6,E7,B7,B8,{8}E1,{16},,,,,,,,E7,
B6,B5,E5,2,,,2,,,{8}3/8-6>4v7[4:3],{16},,,,,B1,
B2,E3,{4}3xh[8:3],,2,
1,{8}2/8,B7,{16}3,5,{8}4,1/7,B2,
{16}6,4,{8}5,7/2,B3,{16}6,5,{8}7,3/6,{16}3,4,
,4,{8}2,1/6,B6,{16}4,8,{8}2,3/8,{16}6,5,
,5,{8}7,1/8,B3,{16}8,4,{8}6,4/5,{16}3,6,
,4,5,4,{8}5xh[8:1],{16}3,7,3,5,3,7,3,8,2,4,
2,8,2,6,{8}2xh[8:1],{16}7,5,7,1,7,3,7,5,6,2,
6,8,6,2,{8}6xh[8:1],4,6/3,2/5,{32}1,2,3,4,5,6,7,8,
{8}1/4,2/5,3/6,{16}2,4,1,7,3,6,2,4,1,6,
2,8,{8}4,7/5>8[16:3],5/7h[8:1],{16},,,6<2[16:3],,,{8}3h[8:1],
{16},,,4<8[16:3],,,{8}6h[8:1],{16},,,6,,,2/7,6/1,
{4}5/8,5h[16:3]/8h[16:3],{16}5h[8:1]/3h[8:1],,,7h[16:3]/5h[16:3],,,,,3h[8:1]/1h[8:1],
,,4h[16:3]/5h[16:3],,,,,{4}6h[16:3]/2h[16:3],4h[4:1]/3h[4:1],
{8},,4/6-4-7[16:3],6/4,{16}3,3,,2-8-3[16:3],,,{8}6,
{16}7,7,,6-8-4[16:3],,,{8}2,{16}3,3,,2,,,{8}4/5,
{4}2/7,7h[16:3]/4h[16:3],{16}6h[8:1]/3h[8:1],,,5h[16:3]/2h[16:3],,,,,7h[8:1]/1h[8:1],
,,8h[16:3]/2h[16:3],,,,,{4}3h[32:5]/7h[32:5],{12}2/6,2/6,2/6,
2/6,1/5,1/5,5bh[4:1]/1b-3-7-4-2[16:11],{24},,,,,,,{8}7h[8:3],{16},,,,,,8,
7,6,5,3,4,5,6,7,8,5,1,5,1,
7,3,7,3,{4}4h[4:1]/6-8-5-3-7[16:11],{8},2h[8:3],{16},,,,,,1,
2,3,4,6,5,4,3,2,1,3,8,3,8,
1-7-2-6-3-5b[4:3],6,1,6,{4}1b,{16},,,,,,,,,,8/4,
7/3,{4}2b/6b-2[32:3],6b/8b-5[32:3]*-6[32:3],8b-3[32:3]*-2[32:3],
8b,7pp4[8:3],{8},4>6[4:1],,,,,5/3,
{16}1,8,2,7,3,6,{32}2,3,4,5,6,7,8,1,
5/2,3/6,4/7,8/5,,,,,{16}B7/B6,3,8,4,7,5,6,4,B6/B5,2,7,3,
6,4,5,3,B5/B4,1,6,2,5,3,4,2,{8}5,{16}6,4,
{8}8,{16}3,6,B3/B4,7,2,6,3,5,4,6,B2/B3,7,1,8,
3,6,1,8,B2/B1,6,3,5,2,7,1,8,3,6,2,5,
{32}3,4,5,6,7,8,1,2,{4}7h[4:1]/3h[4:1],{16},,,,1,8,5,6,
1,8,3,4,{24}5,4,5,4,5,4,6,3,6,3,6,3,{4}6bw2[8:1],
,4b/8bw4b[4:3],{8},,,,,,,,6,
7/B4/B3,{16},2/B5/B6,,,{4}8/1,
{8}5/4,{16}4/7,E4/B3,,5/2,{8}E6/B6,{24}8,7,6,1,2,3,
7,6,5,2,3,4,1,8,7,4/6,3,2,7/1,6,5,2/4,1,8,{4}7bw3b[32:3],
,5pp8<4[2:3]/1pp4>8[2:3],,,,,,,,B2/E3/B3,
{16}B8,B7,{8}E7,E6,E5,
E7,E4,,B7,B2,E6,{16}E4,,,B1,
{4}B2,{8}8<5[8:1],1,2,3,4v7[8:1],3,
2,3,2v5[8:1],1,8,7,{16}8,,,2,
{4}2,{8}6/1,1/6,{16}5,4,{8}5,2/4,2/4,
{16}1,8,{8}1,{16}7/2,,,1/4,,,{8}5/8,6/3,{16}4,5,
4,5,4,5,{8}3x/6x,B6,{16}2,1,{8}B2,{32}3/5,,,2,,1,,,,,{16}4,
{8}5,3/5,B3,{16}7,8,{8}B7,4/6,{16}7,8,
,5,{8}4,1/5,B3/B2,{16}6,5,{8}B6/B7,4/8,B6/B7,
{16}3,4,{8}B3/B2,1/8,{16}7,4,,2,{8}5,3/6,{32}5,4,3,2,
1,8,7,6,{8}5/1,{4}7xh[4:1]/3xh[4:1],{16},,8,3,1,2,8,1,
7,8,1,6,{24}7,8,7,1,7,2,6>7[16:5],1,6,2,6,3,{4}6b,
{16},,,,6,5,7,4,6,3,7,2,5,1,4,2,
5,3,6,2,{24}5x,4x,6x,3x,7x,2x,{16}6,3,7,2,{8}1/8,7,
6,5,{4}5b/4bpp7-1-4-2-8[1:3],{1},,,{16},{32},Ch[32:13],
,,,,,,,,,,,,{4}2,
1qq3[4:3],{8},,4,5,
6,7,{4}8q6[2:1],{16},,1,2,3,,,4,
,,{8}5,5/6,7/8,1/2,3/4,{12}4/5,3/6,2/7,
1/8,2/7,3/6,4/5,{48},,{16}3,8,5,6,3,4,{32}1-5[32:3],8,7,6,5,4,3,2,
{4}1b,{16}5x,3,6,1,4,2,7,4,6x,3,7,5,
6,1,8,4,6x,2,4,3,6,1,7,2,8,8,8,8,
8,8,8,8,{32}8-4[32:3],1,2,3,4,5,6,7,{4}8b,{16}7b/E3/E4/B3f,,,2b/E7/E6/B6f,
,,{8}8b/B4/B3/E4f,{4}E6f/B5/B6/2bw6[32:3],{8},8bw4[32:3],,,{4}Cf,
{16}1b/5x,2,7b/3x,6,4b/5x,3,5b/2x,6,1b/7x,2,8b/3x,7,
4b/6x,3,7b/2x,6x,5b/1x,2,3b/7x,8,1b/3x,4,5b/7x,6,5b/3x,2,1b/4x,5,
6b/8x,1,{8}2b/7x,{24}5,6,4,7,3,8,2,1,3,8,4,7,3,6,2,5,1,6,
2,7,3,8,4,8,{12}1bx-6b[0.2532##0.1266]/5bx-2b[0.2532##0.1266],5bx/1bx,5bx/1bx,{24},,,3bx-8b[0.2532##0.1266]/7bx-4b[0.2532##0.1266],,3bx/7bx,,3bx/7bx,,,,,{4}1b-4b[12:1]/5b-8b[12:1],
Cf/1bq3b[1:3]/5bq7b[1:3],,,,,,,,,,,,,,Ch[2:1],
,E2,E3,E4,
E5,E6,E7,E8,
E1,B1/B2,B3/B4,B6/B5,
B8/B7,E8/E2,E7/E3,E6/E4,
{8}E1,C,
E
