&title=Lost in the nowhere
&artist=Rave_cyanide,Cosmograph
&first=-0.31
&des=野狗复活计划
&lv_5=14
&inote_5=(160){4},,4/5h[4:1],{8}3,5,
3,5,4,5,2,5,{4}3h[4:1],
{8}4,5,3,5,3,5,4,5,
2,5,{4}3h[4:1],{8}4,6,4h[8:1],5,
3,5,2,6,4,3,6,5,
4,6,3,2,7,6,3,{16}3,2,
{8}1,8/6,7,1/8,1/2h[16:1],8,2/7h[8:1],3,
6/4h[8:1],7,3/8h[8:1],2,7/1,2,5/2h[4:1],{16}5,6,
{4}7h[4:1],{16}6,7,5,7,5,4,3,2,{12}1/6x,5x/1,1/4xh[12:1],
{16}8,4,1,5,{24}2,6,2,6,{96},,{32}1bx,2,3,4,5,6,,,8bx,7,6,5,4,3,2,1,8/4,7/3,
{8}6/2,1/5,7b,3,{32}4bx,5,6,7,8,1,2/6,3/7,{4}4/8,
4/5,3b/6b,2b/7b,{8}8b,{32}3,2,1,8,
7,6,5,1,8,7,6,5,{16}4,1,2,3,{4}4,{16}3,,,3,
4,,,4,5,,,5,6,,,6,{4}7h[4:1],
8h[16:3],{16}7,,,7,6,,,6,4,5,4,6,
5,6,4,3,2,5/1,6,7,{4}8/1h[4:1],{16}6,,,4,
5,,,5,6,5,4,3,6,5,4,3,5,4,3,2,
5h[16:3],,,3,5/4,,,5,4,,,4,3,4,5,6,
3,4,5,6,7,,,6,4h[16:3],,,5,4,,,4/5,
5/3,,,2/6,{4}5/2,8/4,7/4,
{16}5/3,,,4,3,,,4,5,3,{24}5,6/3,7,{4}8/2h[4:1],
6,5/3,{16}2/4,,,3,4,,,4,
5,,,6,{4}5h[16:3],3h[16:3],5h[16:3],
{16}7,,,6,5,,,5,4,,,4,{4}3h[4:1],
1h[4:1],4h[4:1],{16}5,,,4,3,,,5,
6,,,4,{4}3h[4:1],{8}5h[2:1],{24},,,,,,4>5[8:7],3,2,
{1}1h[1:1],
{4},,5/3h[4:1],7h[4:1],
{8}4,7,{4}7<4[4:1],1,2,
4/6h[4:1],2h[4:1],{8}4,{32}2,,,4,{4}3<6[4:1],
8,7,5`3,2/5h[4:1],
{8}3,7,{64}5<7[8:1],4,,,,,,,,,,,,,,,{4}8/5>3[8:1],{64}5/8q5[8:1],,,,,,,,,,,,,,,2,
{4}8,{8}5/2,1>4[8:1],,6/1,{4}7V15[8:3],
3,4,{2}6h[2:1]`3h[4:1],
{4}4-7[4:1],7-3[4:1],3-8[4:1],8,
7>5[2:1],{8}6,5,,7,{4}8h[2:1],
5,4-2[8:1],{2}6/4V62[32:9],
{4}8-6[8:1],2/8V26[4:1],,2-5[8:1],
5/2qq3[8:3],7h[4:1],,6/4>1[4:1],
{16},,,,,4,5,6,{2}7h[2:1],
{4}2,{32}4,3,,,,,,2,{16}1,,,8,7,,,1,
{4}2h[4:1],3p5[2:1],{32},,,,,,,6,{4}5,
{2}4>7[2:1],{64}7,6,{4},{16},,,{32},{4}8,
{64}6,5,,,,,,,,,,,,,,,1,2,,,,,,,,,,,{16}5,{24}3,,,,,2,
{4}3,{16}5/6,4,3,2,{24}5/1,6x,7x,8x,1x,2x,3x,4x,5x,6x,7x,8x,
{32}1x,8,7,6,5,4,3,2,1,8,7,6,5,4,3,2,1bx/4b,,,,,,,2,1-6[8:1],,,,,,,8,
1,,,,,,,4,3-8[8:1],,,,,,,2,3,,,,,,,5,4-1[8:1],,,,,,,4,
6-3[8:1],,,,,,,8-4[8:1],6,,,,,,,8,5,,,,,,,6,{4}7-3[8:1],
3/7,{16}4,5,4,6,{4}4h[4:1],5,
{6}6/2,{24}1,5,1,5,1,5,2,6,2,6,2,6,3,7,3,7,3,7,4,8,
4bx,8bx,{96},,,,,,,,,,,,,{32}4b,{4}5b,{32}2b,1b,,,,,,,6b,5b,,,,,,,{2}1h[4:1]/8>7[4:1],
{4}1,{12}7<4[8:1],,1,
{4}7/1,{24}2,4,2,5,,,{8}6/1,2,{4}3h[4:1]/7-2[8:1],
7,5/3-6[8:1],3/7h[4:1],{16}5,4,3,2,
6,5,4,3,{4}1h[4:1],5h[4:1],{16}8,7,6,5,
8,7,6,5,1/4h[16:3],,,8,{4}4,3/7h[4:1],
{16}5,4,3,2,1,8,7,6,5/1,8/4,7/3,6/2,{4}1h[16:3]/5h[16:3],
7/3<7[4:1],{16}7,8,1,2,3h[4:1],,,7,{4}7,
2/6>2[4:1],{16}2,1,8,7,6,1,8,7,{4}6/1-6[8:1],
1/5-1[8:1],{16}4,3,{8}2h[8:1],{16}8,7,{8}6h[16:5],{4}3,
4h[4:1],7,8b/4h[4:1],{24}8x,{48}4x,8x,,,{24}3,2,1,
{32}8,,,,,5b/1b,6/2,7/3,{4}8/4,{24}3x,{48}7x,3x,,,{24}2,1,8,{32}7,,,,,4b/8b,5b/1b,6/2,
{4}3/7,{32}5x,7x,5x,8,1,2,,,,,,,,8b/4b,7b/3b,6b/2b,5/1,8/4,,,,,,,{8}5/8h[2:1],
,,6,{4}7-1[8:1],7/2v4[16:3],
{8},5,{4}3b/5v7[16:3],{8}5/2,8,6/1-5[8:1],2,
{4}3v8[8:1]`1,3`7v5[16:3],{8},4,{4}6b/4V68[8:1],
{8}4/1v6[8:1],2,3/1,{16}4,3,{4}2-6[8:1],2/4V28[32:5],
{8}4,6,{4}7/5b-8[8:1],5/3-6[8:1],3b/1,
8V26[4:1]`2,{8}8`4,4,,5`4,{4}6/4,
{8}3/5b,{24}3,5,3,{8}6b,2,{4}1/5bV73[4:1],{32}8,1,2,3-1[32:3],,,,,6,
7,{16}8,,,{4}8/4V26[4:1],{32}1,8,7,6-8[32:3],,,,,3,2,{16}1,{48},,,,,,{24}1h[4:1],
,,,,,,8/2,7/3,6/4>1[8:1],,,,,,{8}5/4,{4}8,
5/2,6/3,7/4,{32}4/6b,3,2,1,8,7,{16}6,
{24}1b,,,,,,{4}2/5,{32}5/3b,6,7,8,1,2,{16}3,8b,,,4,
{4}4/5,{32}4/6b,3,2,1,8,7,6,5,1b/4,3/8,2/7,1/6,{8}5/8,{4}8bx,
{16}4,7,3,8,2,1,8/2,7/3,{2}4/6<6[4:9],
{4},,,,,,,,,7,
{8}4,7,{32}6/3,,,2,,,{16}5,
{32},6/3h[8:1],,,,7,{96},,,,,,{12}2,5,4,1,7,3,5,8,6,
{16}2,4,1,6,4,5,3h[32:1],7h[32:1],2h[32:1],8h[32:1],{32}1x,2x,8x,3x,7x,4x,6x,5x,,,,,,,,,,,,,{4}4h[4:1],
{2}5h[2:1],
{4}3h[4:1],8h[2:1],,4,
{2}5`4,{4}3`5,8`2,
,5/4,{32},3,{16}2,,,,,,,{2}5/4,
6/4,
{4}4/5,{32}4,3,{16}2h[16:3],{48},,,,,,{12}8,7,6,{48}5,,,2,,,{16}3,4,
5,6,7,8,1/5v2[4:1],2/6,7/3,8/4,{4}5/1,{8}1,3,
5,3,4,2,5-1[4:1],3,{4}6,
{8}5,2,4,3,8,2,5,3,
5-8[4:1],1,{4}6,{8}5,4,7,2,
5,3,4,2/6,1/5,8,7,6,
{32}5,4,{16}3>3[1.4531##6],{4},,{16},,{32}4,3-8-2-5q7[1:4],{16}2,
E
