&title=神っぽいな
&artist=ピノキオピー
&des=
&first=0.0015
&des_6=サファ太 vs. 忘了
&lv_6=13+
&clock_count=4
&inote_6=(142){1},
1hb[1:3],
{16},,,,,,,Ch[16:25],,,,,,,,,
{1},
{2},E5,
{16}4/6h[4:3],,,5,,,5,,,5,,,5,,6,,
3h[4:3],,,4,,,4,,,4,,,4,,3,,
6h[4:3],,,5,,,5,,,5,,,5,,6,,
3h[4:3],,,4,,,4,,,4,,,4,,3,,
6h[4:3],,,5,,,4,,,5,,,5,,6,,
3h[4:3],,,4,,,5,,,4,,,4,,3,,
6h[16:9],,,5,,,3,,,4h[16:3],,,5,,3/6,,
{8}2h[8:5]/7,,,,,Ch[8:1],,,
{16}8,,8,,7,5,,5,6,5,,5,7,,2x/8x,,
1,,1,,2,4,,4,3,4,,4,2,,1x/7x,,
8,,8,,7,5,,5,6,5,,5,7,,2x-6[8:1]/8x-3[8:1],,
,,{4}2/8,2x-6[8:1]/7x-4[8:1],2/7,{8}3x/8x,
{16},,4/7,,7,5,,5,6,5,,5,7,,2x/8x,,
1,,1,,2,4,,4,3,4,,4,2,,1x/7x,,
8,,8,,7,5,,5,6,5,,5,7-3[8:1],,3,,
1hbx[8:5],,,,,,,,,,8,1,2x/7x,,,,
3h[4:1],,5,,5,,7h[4:1],,5,,5,,3,4,2h[4:1],,
{8}4,4,6h[4:1],4,4,5/7,8<4[4:1],8,
{4}4>8[4:1],8V64[4:1],4V28[4:1],8<8[2:1],
{16}4b,,,,,,,,,,,,5,4,5,,
7h[4:1],,5,,5,,3h[4:1],,5,,5,,5,4,6h[4:1],,
{8}4,4,2h[4:1],4,4,3/5,4/6,5/7,
8>3[4:1],,3q8[4:1],,8,1,2,3,
{2}4>2[8:1]/7h[4:1],1h[4:1]/6<1[8:1],
{1}3b/4b>6[2:1]*p6[2:1],
{8}Ch[2:1],,,,,,1/8,2V48[4:1]/7,
3/4,2/5,7,6h[8:1],1,2-5[8:1]/5,3/4,2/7V51[4:1],
8,4/7,2,3h[8:1],8,1bx/7bx,1bx/7bx,2/6,
3/7h[8:1],5,2h[8:1]/6,4,3/8h[8:1],5,1/7,2,
3/6,4/7,5/8-5[8:1]b,4,3hb[4:1]/8b,,6x,4/7V51[4:1],
5/8,4/7,2,3h[8:1],8,4/7-4[8:1],5/6,2V48[4:1]/7,
1,2/5,7,6h[8:1],1,2bx/8bx,2bx/8bx,3/7-1[8:1],
4,5-3[8:1],4,6-2[8:1],7,2,3,4,
{16}5x>2[8:1]/8<5[8:1],,,,5/8x,,,,1b/7b,,,,4/6,,3,5,
2,4,2,4,3,5,4,6,3,5,3,5,1,,2/8,,
7,5,7,5,6,3,6,3,5,4,6,5,8,,1V37[4:1]/7,,
{8}3/4,1/6,8,6h[8:1],1,2-6[8:1]/5,3/4,2/7-4-8[4:1],
{16}8,,4/7,,2,,3b,,1b/7b,,,,3/5,,2,4,
3,5,4,7,5,6,5,6,4,5,3,4,2,,1/5,,
2,4,2,4,3,5,4,6,5,7,4,6,5,,4/6V84[4:1],,
{8}7/8,1/6,3,2h[8:1],5,1>4[8:1]/6,7/8,1/6-3[8:1],
{16}5,,1/6,,2h[8:1],,4,,1,5,1,5,2bxh[8:1]/6bxh[8:1],,,,
4/8,,4/8,,7,5,,3,4,2,5-1[8:1],3,4,,3/5,,
2,,2,,2,4,,6,5,7,4-8[8:1],6,5,,4/6,,
7,,7,,7,5,,3,4,2,5,3,4,,2x^4[8:1]/8x-4[8:1],,
,,{4}2/8,1x-5[8:1]/7x^5[8:1],1/7,{8}3x/8hx[4:1],
{16},,4,,6,5,,3,4,2,5-1[8:1],3,4,,3/5,,
2,,2,,2,4,,6,5,7,4-8[8:1],6,5,,4/6,,
7,,7,,7,5,,3,4,2,6,5,8-4b[8:1],,4,,
8b,,Ch[8:5],,,,,,,,,,{24}B6,B7,B8,B1,B2,B3,
(103){16},,,1,1^4[8:1],7,7,,6,7,8,,5,4,3,,5b<1[4:1]/4,4b/5,,2,2,3,3,4,4,2x,1x,8x,7x,,45,45,3bv8[16:3]/6,3/6b,,
,4,5,6,7,7v4[16:3],8,8,7,7,8x,1x,2x-6[16:3],3bx,,,3^8[16:3],3,4,4,5p1[16:3],5,6,6,7,7,8,8,7,2b/7,2/7b-3[8:1],,
1,8,7-4[8:1],4,5,6,7-2[8:1],2,1,8,7,6,6,5b/1,1b-4[8:1]/5,,3,2,1-6[8:1],6,7,8,1-5[8:1],4,3,2,1,6,7,8b/4,8/4b-8[8:1],,
2,3,4-7[8:1],7,6,5,4-1[8:1],1,2,3,4,5,6,7b/2xb^7[2:1]*v4b[2:1],,,,,,,,,,,,,,
{8}2V48[4:1],34,2,5,6,7,18,27,7V51[4:1],56,7,4,3,2h[4:1],,1-6[6:1],8,2-5[6:1],3,8-5[6:1],7,1-4[6:1],2,7-4[6:1],6,8-3[6:1],1,6<4[16:5],7,5hx[8:3],,,
{8}6-1-5[4:1],78,6,2,3,4,56,7,8qq8[4:1],1,4v1[6:1]/8-5[6:1],,,,,,7,8^3[6:1],1,7^4[6:1],6,1q5[6:1],2,8^6^5^3^1^8[2:1],7,1hx[2:1],,,,,,,,
(142){16}2x^4[8:1],,8,,8,,1xq5[8:1],,7,,7,,8x,7x,6x,,5x^7[8:1],,3,,3,,4xq8[8:1],,2,,2,,1>5[4:1],,1,,5<1[4:1],,,,1V35[4:1]*V35[4:1],,,,5V71[4:1]*V71[4:1],,,,1>1b[2:1],,,,5b,,,,,,,,,,,,4,5,4,,
{16}7x^5[8:1],,8,,8,,4xq8[8:1],,3,,3,,1x,2x,3x,,4x^2[8:1],,5,,5,,1xq5[8:1],,8,,8,,7,,7,,6V48[6:1]/3,,3,,2,,2,,3V51[6:1]/6,,6,,7,,7,,7^1-5[6:1],,4x,4x,4x,,3x,,2^8-4[6:1],,5x,5x,5x<5-7-4-8-3-1[16:32]*<5-7[128:133]*<5-7-4b[128:165]*<5-7-4-8[32:50]*<5-7-4-8-3b[32:58],,6x,,,,,,,,,,,,,,,,,,,,,,,,,,,,,,,,,,,,,,,,,,,,,,
{16}1-5-3[8:1]/8,,27,,1,,6,,7,,7-4[8:1]/8,,1-5[8:1]/6,,7,,1^4[8:1],,8,,1q5[8:1],,7,,1v6[8:1],,6<3[5:1],,1,,,,,,5,,28,,4,,17,,5,,12,,6,,78,,3,,27,,5,,1/8-5[8:1],,4,,2hb[4:1],,,,
{16}4-8-6[8:1],,63,,4,,2,,3,,3-8[8:1]/4,,4-7[8:1]/3,,3,,4q1[8:1],,3,,4q8[8:1],,2,,4^7[8:1],,1,,4,,,,,,1q5[8:1],,1,,6-2[8:1],,6,,4-8[8:1],,4,,1,,1-5[8:1],,1,,1-4[8:1]*-6[8:1],,,,1w5b[8:1],,,,1b,,,,
{16}7,3,7,,4,6,3,5,2,7,1,8,2-6[8:1],6,1-5[8:1],7,2,,1,,4,,7,8,6,1,5,2,8-4[8:1],1,7^2[8:1],2,8,,7,,5x,,4-6[12:1]/3,,3-1[12:1]/4,,4,,3,,7,,7/8-2[8:1],,1,,7-3[8:1]/8,,6,,7/8-4[8:1],,1,,8,,,,
{16}8,1,8,,6,4,E8,B2,5,3,B7,E2,E6,B5,B4,E4,27,,36,,3,5,E2,B7,4,6,B2,E8,E4,B4,B5,E6,7^4[8:1]/2,,18,,1^4[8:1],,1,,8-4[8:1],,8,,2-6[8:1],,2,,7v2[8:1],,7,,7p3[8:1]*p3[8:1],,5,,7^4b[8:1],,4,,3>7[4:1],2<6[4:1]*<6[4:1],1<5b[4:1],8<4[4:1],,,,,,,
{16}2,,2h[16:1],,,7,2,8w4[8:1],1,7,,A8/E1/E8,,,,,
{16}7,,7h[16:1],,,2,7,1w5[8:1],8,2,,A1/E2/E1,,,,,
{16}3,,3h[16:1],,,6,3,5w1[8:1],4,6,,A5/E5/E6/,,,,,
{16}8z4[8:1]/7v6-4[8:1],,,,,,,,1s5[8:1]/2v3-5[8:1],,,,,,,,
{16}7,,6,4,,4,6,5-1[8:1],7,4,,5/B2,,,,,
{16}2,,3,5,,5,3,4-8[8:1],2,5,,4/B7,,,,,
{16}6,,1,7,,7,1,8,2,7,1-5[8:1],8,,,4h[8:5]/1,,,,,,,,,,5,5,3pp8[8:5],,,,
{1}7h[16:19],
{4}8h[8:3],,,7/8pp3[8:5],
{1}5h[16:19],
{4}3h[8:3],,,1>4[2:1]/6,
{16}5,,,5,,,6,,,7,,,5/8<5[2:1],,,,
4,,,4,,,3,,,2,,,1>4[2:1]/4,,,,
5,,,5,,,6,,,7,,,5-7[8:1]/7,,4,,
{8}3h[8:5],,,,,Ch[8:1],
