&title=きまぐれユモレスク
&artist=箱崎星梨花(CV:麻倉もも )
&first=0.03
&des=这到底是32分跳拍还是24分跳拍aaaaaaaaaa
&lv_5=13+
&des_5=这到底是32分跳拍还是24分跳拍aaaaaaaaaa
&inote_5=
(100){4},,,,{64}3h[8:3],
4h[64:23],{4},{16},,,{32},{64}6h[8:3],5h[64:23],{4},{16},,,{32},{64}2h[8:3],
1h[64:23],{4},{16},,,{32},{16}8,1,{8}7h[4:1],B7/B6,E2/B2,
{64}6h[8:3],5h[64:23],{4},{16},,,{32},{64}3h[8:3],4h[64:23],{4},{16},,,{32},{64}7h[8:3],
8h[64:23],{4},{16},,,{32},{16}1,8,{8}2h[8:1],{4}C,
{16}2h[16:3],,,1,{8}3h[8:1],8,2V46[8:1],2h[8:3],{48}A3,E4,,,,,,,,,,,{16}8h[16:3],
,,1,{8}7h[8:1],2,3>8[16:1],4,{48}5/E3,E2,,,,,,,,,,,{16}7h[16:3],
,,8,{8}6h[8:1],1,7V53[8:1],7h[8:3],{48}A6,E6,,,,,,,,,,,{16}1h[16:3],
,,8,{8}2h[8:1],7,{2}Cfh[4:1],
{12}7/1x,{24}6,5,,5,{12}7,{24}3,4,,4,{12}2-6[16:1],{24}1,7-1[16:1],,,{8}2,7,
{12}2,{24}4,3,,8,{12}1b,{24}5,4,,7,{12}8b-4b[16:1],{24}6,5-1[16:1],,,{8}8,5,
{12}2/8x,{24}3,4,,4,{12}2,{24}6,5,,5,{12}7-3[16:1],{24}8,2-8[16:1],,,{8}7,2,
{12}7,{24}5,6,,1,{12}7b,{24}4,5,,2,{12}8bz4b[8:1],{24}3,4,,,{4}E1/A1/D1/A8,
{8}1h[8:3],,,E5,2h[8:3]/C,,,A7,
{4}3h[8:3]/B8,E7,{2}4h[8:3]/A5,
{8}5h[8:3],,,E4,6h[8:3]/E2,,,B3,
{4}7h[8:3]/E1,{8}C,6x>3[4:1],{2}8h[8:3],
{12}2pp4[8:1],{24}3,4>8[8:1],,4,{8}2,7,{12}6-1[16:1]*-3[16:1],{24}5,4,,,{4}B6/E6/E7,
{12}8-4[16:1],{24}6,4-8[16:1],{48},,,,8/E2,E3,{24}A3,,,,,{12}1-5[16:1],{24}3,5-1[16:1],{48},,,,1/E8,E7,{24}A6,,,,,{12}7qq5[8:1],
{24}6,5<1[8:1],,5,{8}7,2,{12}3-7[16:1],{24}4,5-1[16:1],,6,{8}3,5,
{16}8x>1v3<4[16:3],,,4xV68[16:3],,,{8}B5,{4}B7,1h[8:1]/8h[16:1],
{8}8w4[8:1],{16}3-8-2-6[8:3],3,{4}8,{8}6-2[8:1],7,8,1,
1V72[4:1],7x,2x-6[8:1],6xV48[4:1],{2}4xh[4:1],
{8}1w5[8:1],{16}6-1-7-3[8:3],6,{4}1,{8}3-7[8:1],2,1,8,
8w4[8:1],{16}5x-8-3[4:1],5,{4}8x,{16}1xh[4:1],,,,,2,4,3-8[16:1]*-1[16:1],
5h[8:1],,,3,,7,5,6-1[16:1]*-8[16:1],4h[8:1],,,6,,,{8}2,
3-8[8:1],4,5-2[8:1],6,7-4[8:1],8,1p6[2:1],2h[4:1],
,,{4}3p8[2:1],,8<1b[2:1],
{8},,,,D8/E8/E1/E2/D2/B1/B8,A8/D1/A1,,,1/7,
{16}3,2/4,{8}5<8[8:1],1h[4:1]/8<5[8:1],{4}5x,{16}2-8[16:1],4,3,5,
{8}2>5[8:1],5>2[8:1],{48}2/E7,B6,,,,,,,,,,,D8,E8,,,,,,,,,,,{4}1h[8:1]/D1,
{8}8/2,{16}6,5/7,{8}4>1[8:1],8h[4:1]/1>4[8:1],{4}4x,{16}7-1[16:1],5,6,5,
{8}7-5[16:1],{16}2,2,{8}7-3[8:1],{16}3-7[8:1],3,{4}7,{16}2,8,1,1,
{12}7b,{24}6,5,,8,{12}1q4[4:1],{24}4,3,,8,{8}1,8h[12:1],{16}7-1[16:1],5,6,4,
{8}7<4[8:1],4<7[8:1],{48}7/E3,B3,,,,,,,,,,,D2,E2,,,,,,,,,,,{4}8h[8:1]/D1,
{12}2b,{24}3,4,,1,{12}8,{24}5,6,,1,{8}8,7/2,4-7[16:1]/5-7[16:1],3/6,
{4}5-2[16:1]/4-2[16:1],4qq5b[4:1]/5pp4b[4:1],{2}E5f/B4/B5,
{8}2/8h[8:1],{24}3,,4,{8}2h[8:1],{24}6,,5,{12}6pp5[4:1],{24}8,2,,3,{4}6,
{8}2h[8:1],{24}7,,3,{8}5h[8:1],{24}3,,7,{12}4qq5[4:1],{24}6,2,,5,{4}4,
{8}7h[8:1],{24}3,,4,{8}2h[8:1],{24}5,,3,{12}5pp4[4:1],{24}4,6,,3,{4}5,
{8}1h[8:1],{24}4,,3,{8}5h[8:1],{24}3,,5,{12}3qq4[4:1],{24}8,2,,4,{4}3,
{2}8xh[2:1],B3/B4`B5,
4/2h[2:1],{12}E7,E6,E5,{48}3,,,3,,,{16}4,2,
{1}5-3>2v8<7-5b[2:3],
{16},,,,,,,,,,,,,,,,3h[2:1],
,,E5,,,{8}B6,{16}7h[2:1],,,E5,,,{8}B3,
{16}2h[2:1],,,E6,,,{8}B7,{2}8xw4[4:3],
{16},,,,,,,,,,,,2-8[16:1],4,3,4,
{8}2b,{16}6,6,{8}4<7[8:1],1/7<4[8:1],{4}4x/3h[8:1],{16}1-5[16:1],1,5,5,
{8}1>4[16:1],{16}7,7,{48}1/E7,B6,,,,,,,,,,,3h[8:1]/D8,E8,,,,,,,,,,,{16}8,8,{8}2,
1/7,{16}3,3,{8}5>2[8:1],8/2>5[8:1],{4}5x/6h[8:1],{8}8h[8:1],{16}4,4,
7<4[16:1],2,8,1,{8}7,{16}8,8,{48}D6,E6,,,,,,,,,,,{16}6,1,7,7,
{12}2b,{24}3x,5,,1x,{12}8<5[16:1],{24}3,4>1[16:1],,1,{8}8,4,{16}8-4[16:1],8,4,4,
{8}8<5[16:1],2,{48}8/E3,B3,,,,,,,,,,,6h[8:1]/D2,E2,,,,,,,,,,,{4}7h[8:1]/D1,
{12}8b/1,{24}7,5,,8,{12}2,{24}4,3,,7,{8}1,2/7,5-2[16:1]/4-2[16:1],8/1,
{4}4-7[16:1]/5-7[16:1],5pp4b[4:1]/4qq5b[4:1],{2}E5f/B5/B4,
{8}5/3h[8:1],{24}7,,4,{12}6,{24}1,8h[8:1],,,{12}3>8[16:1],{24}6,4<7[16:1],,5,{8}3,4,
1h[8:1],{24}7,,4,{12}6,{24}1,8h[8:1],,,{12}2-4[16:1],{24}7,5-1[16:1],,6,{8}2,5,
3,{24}2,,5,{12}3,{24}8,1h[8:1],,,{12}6<1[16:1],{24}3,5>2[16:1],,4,{8}6,5,
8h[8:1],{24}2,,5,{12}3,{24}8,1h[8:1],,,{12}7,{24}2,4,,3,{4}7h[4:1],
{12}1b,{24}5,3,,8,{12}2,{24}7,5,,8,{12}1>4[16:1],{24}6,5-7[16:1],,7,{8}1,{24}5,,2,
{12}8,{24}5,6,,1,{12}7,{24}3,5,,1,{12}8<5[16:1],{24}3,4<7[16:1],,,{8}8/2,1b,
{12}8x/2,{24}4,6,,1,{12}7,{24}2,4,,1,{12}8<5[16:1],{24}3,4-2[16:1],,2,{8}8,{24}4,,7,
{12}1,{24}4,3,,8,{12}2,{24}6,4,,8,{12}1>4[16:1],{24}6,5>2[16:1],,,{8}1/7,8,
{1}7xV53>2v8<7b[2:3],
,2xV46[1:1],
6<7v1>2[4:3],
E
