&title=缄色症候
&artist=ariiol
&first=1.662
&des=酒好喝
&lv_5=13+
&des_5=酒好喝
&inote_5=
(130){4},{1},,,{4},,,{8}6h[8:1],
E7,5h[8:1],E6,4h[8:1],E5,{4}3h[8:1],
{8}3,E3,4,E4,5,E5,{4}6,
{8}6,E7,5,E6,4,E5,{4}3,
{8}5/4,E8/E7,5/4,E2/E3,5/4,{24}E5,{48}B3,C,{24}B7,{8}E1,4xV68[8:1],
{4}2,{48}1x,2,,,,,,,,,,,{12}3,{24}3,4,{48},,,,1x,2,,,,,,,,,,,{8}3/4,
5,{48}1x,2,,,,,{8}5,{12}3,{24}3,4,{48},,,,1x,2,,,,,{8}4h[4:1],
{4}3,{48}1x,2,,,,,,,,,,,{12}3,{24}3,4,{48},,,,1x,2,,,,,{8}4,
{4}3h[4:1],{48}1x,2,,,,,,,,,,,{8}4,{24}3,,3,{8}4h[8:1],1,
{4}5-8[8:1],{48}1x,2,,,,,,,,,,,{12}3,{24}3,4h[8:1],{48},,,,1x,2,,,,,,,,,,,{8}4/3,
5,{48}1x,2,,,,,{8}5,{12}3,{24}3,4h[8:1],{48},,,,1x,2,,,,,{8}4,
{4}3-6[8:1]*v5[8:1],3x,{12}3,{24}3,4h[8:1],{48},,,,1x,2,,,,,{8}5,
3/4,E2/E1,6/5,E7/E8,5/4,B2/D3,5/4,B6/A6,
{4}5v8[8:1]/4q1[8:1],5x/4b-2>5[4:1],{8}5,8,6,4,
4/2V46[8:1],{24}5,6,7,{8}2,8h[8:1],6V48[8:1],1,5/6,3,
{4}1q5[8:1]*V35[8:1],1,{8}8/7,6-8>1[8:1],3/4,6,
5v2[8:1],{24}3,2,1,{8}5,4q8[8:1],6,4,5pp7[8:1]*qq3[8:1],1,
,,{4}1/8,{8}6/2-4v5[4:1],4/3,6,8-6[8:1],
7,{24}3,2,1,,,,{8}4/5,7-5[8:1],2/8,7p3[8:1],{24}3v5[8:1],2,1,
{4}7,8,{8}1/6,3/4,6/7v5[8:1],1,
{4}8/7v2[8:1],7v4[8:1]*p3[8:1],,8/1s5-3[2:1],
{2}5,{4}8h[4:1],{16}1,{48},,,,,,2,3,4,
{8}6,7,8-4[8:1],1,2,3,{4}5,
{8}1/7,2,3-7[8:1],4,5,6,8,{16}1,{48}7,6,5,
{8}3,2,1-5[8:1],8,7,6,4,3,
{12}2,{24}2,5-1[8:1],,6,{12}4,{24}4,5x,,,{12}3,{24}8x,7x,6x,5x,{12}3x/4x,{24}2,8xh,,,{12}7,
{24}7,4-8[8:1],,3,{12}5,{24}5,4x,,,{12}7,{24}1x,2x,3x,4x,{12}6x/5x,{24}7,1h[8:1],,,{12}3,
{24}3,4,,4,{12}5,{24}5,6,,6,{12}7,{24}7,8,,8,{12}1,{24}1,2,,2,
{8}3,6,5/7,3,4/2pp2[4:1],{24}5,6,7,,,,,,,{4}8h[2:3],
{48}B4,E5,{4},{16},,,{48},{4}E6,
{48},,,,,,,,,,,,B4,E5,{4},{16},,,{48},{4}E6,
5h[4:1],{48}1x,2,,,,,,,,,,,{12}3,{24}3,4,{48},,,,1x,2,,,,,{8}4,
{4}3<5[8:1],{48}1x,2,,,,,,,,,,,{8}3,{24}6,,6,{8}5-7[8:1],8,
{48},,,,,,,,,,,,1x,2,,,,,,,,,,,{12}3,{24}3,4h[4:1],{48},,,,1x,2,,,,,,,,,,,{8}3,
5,{48}1x,2,,,,,{8}5h[8:1],{12}3,{24}3,4,{48},,,,1x,2,,,,,{8}4,
{4}3<5[8:1],{48}1x,2,,,,,,,,,,,{12}3,{24}3,4,{48},,,,1x,2,,,,,{8}4,
3h[8:1],4v5[8:1],{48}1x,2,,,,,{8}4,3,2,1<3[4:7],3,
{4}1,C,,C,
,C,,Ch[4:1],
B8/B7,{8}3/4,2,{12}6/5,{24}7,4h[8:1],,,{8}5-7[8:1],8,
3-5[8:1],2,6/3v1[8:1],8,3,{24}D6,D7,D8,{8}2,3/4,
{4}5w1[8:1],5,{12}6/5,{24}7,4h[8:1],,,{8}5-7[8:1],8,
4v5[8:1],3,4/6,8,{12}3,{24}3,4-2[8:1],,,{4}2/5,
8p4[8:1],1/8,{12}3/4-6[8:1],{24}5,2h[8:1],,,{8}4,3,
7h[8:1],6h[24:1],6h[8:1],5h,5h[8:1],4,4,3,
{4}2-5[8:1],2/8,{12}6,{24}6,5,,5,{8}8h,3,
2/4>2[8:1],6,4/5,7h[8:1],8h,6qq4[8:1],4/5,1,
{2}8x<5[8:1]*p4[8:1],{12}3,{24}3,4,,4,{8}1h,6,
7/5<8[8:1],3,4/5,2h[8:1],1h,{24}3,4,3,{8}4v3-1q5<6-4[4:3],2h,
{4}7xh[2:1],,,{64}A4,5xv6-8p4>3-5[4:3],,,,,,,,,,,,,,,{4}2xh[2:1],
,,{64}A5,4xz8[64:63],,,,,,,,,,,,,,,{1}5xh[1:1],
{4},,,{32}E4,B3,B2,B1,{8}E1,
{2}4q8[4:1],{12}E2,E3,E4,E6,E7,E8,
B1,B2,B3,B5,B6,B7,D2,D3,D4,1-5[8:1],,,{4}4q8[8:1],
{32}E4,B3,B2,B1,{8}E1,{12}2,4<7[12:1],5,{48}1x,2,,,{12}4,3,
2,4-6[12:1],3,{48}1x,2,,,{12}4,3,2,4<7[12:1],5,{48}1x,2,,,{12}4,3,
{4}2q6[8:1],{32}E2,B1,B8,B7,{8}E7,{12}2,4-6[12:1],3,{48}1x,2,,,{12}4,3,
2,4<7[12:1],5,{48}1x,2,,,{12}4,3,2,4,3,{48}1x,2,,,,,,,,,,,{4}3/7p3[8:1],
{32}E8,B8,B1,B2,{8}E3,{12}2x,4-6[12:1],5,{48}1x,2,,,{12}4,3,
{48}1x,2,,,{12}4,3,{48}1x,2,,,{12}5,3,{48}1x,2,,,{12}6,3,{48}1x,2,,,{12}7,3,
{4}8-5[8:1],{24}E1,B1,B2,E3,,,{12}6h[12:1],5,7,8,6,4,
7h[12:1],1,6,1,4,{48}1,2,3,4,{12}1,5,8,2>8[8:3],4,1,
{2}3-1[8:1],{12}3h[12:1],4,2,1,3,5,
2h[12:1],8,2,8,5,{48}8,7,6,5,{12}8xh,4,1xh,7<1[8:3],5xh,8,
{2}6-8[8:1],{12}6h[12:1],5,7,8,6,4,
7h[12:1],8,6,1,4,{48}1,2,3,4,{12}1,{24}5,3,{12}4,2>8[8:3],3,1,
{2}3-1[8:1],{12}3h[12:1],4,2,1,3,5,
2h[12:1],8,3,7h[12:1],6,3,6h[12:1],5,3,4h[12:1],5,4v5-3[3:4],
{1}5bv4-6[4:5],
E
