&title=聖者の息吹
&artist=世阿弥 vs Tatsh
&first=-0.52
&des=Delugeの鼓動
&des_5=Delugeの鼓動
&lv_5=13+
&inote_5=(180){4},,,,{1}3pp6[4:11],
,,,8qq5[16:49],
{4},,,,,,,1-5b[8:1],
{1}1b,
{8}6/3,3,2/8,2,8h[4:1],{16}2x,3x,{8}4x,7h[8:1],
5,6h[8:1],4,5h[8:1],{4}3-8[8:1],3,
{8}2/7,7,6/4,6,4h[4:1],{16}6x,7x,{8}8x,3h[8:1],
1,2h[8:1],8,1h[8:1],{4}7-4[8:1],7b,
{8}3,3,2/8<5[8:1],2,8/1,{16}2x,3x,{8}4x,7h[8:1],
3,6h[8:1],2,5h[8:1],{4}1-5[8:1],1,
{8}2-4[8:1],7,2-8[8:1],6,{4}2,{8}4/3,5/2,
{16}3,6,2,7,3,6,2,7,{2}3-6[8:1],
{8}8,7,6,5,7,6,5,4,
6b<1[8:1],4,6/3,2,2>5[8:1],8,7/2,6,
7-3[8:1],8,7/3,2,1-5[8:1],2,1/5,6,
1x/2xpp5[8:3],8x/7x,2,7,{4}6,{16}8,1,7,2,
{8}8b<6[8:1],3,8/2,1,2>4[8:1],5,2/6,7,
2/8-4[8:1],7,8/2>5[8:1],1,2/7-4[8:1],8,7/1q5[8:1],2,
1/7,,,6-8[8:1],6-4[8:1],6x,{4}6x,
{16}2b,1,2,1,2,1,2,1,3,8,2,1,3,8,2,1,
{1}Cf,
{8}4/7h[4:1],,,4/6h[8:3],3,,,4/7h[8:3],
3,,,2h[8:1],4,3h[8:1],5,4h[8:1],
{4}6h[2:1],{16},,,,,,,,2,3,{8}4,
{4}2/6h[4:1],{16},,,,,,,,1,8,1,8,
{8}7bx/2h[4:1],,,7/3h[8:3],6,,,6/2h[8:3],
5,,,5h[8:1],3,6h[8:1],4,7h[8:1],
{4}5h[2:1],{16},,,,,,,,8,7,{8}6,
{4}8/4h[4:1],,,8b/1b,
6,{8}4/3,2,{4}5/6,{8}4/6,7,
{4}3/5,{8}6/5,7,8/1,2,4/3,5,
{4}2/7<4[4:1],{16},,,,,,,,6,6,,,{1}7/2q5[2:1],
{16}7h[16:3],,,6h[16:3],,,{8}5,{16}2h[16:3],,,3h[16:3],,,{8}4,
{16}7h[16:3],,,5h[16:3],,,{8}6,{16}2h[16:3],,,4h[16:3],,,{8}3,
6,3,5,{16}4,7x,{12}6x,2,3,4,8,7,
{16}6,3,5,4,6,5,7,4,6,3,5,2,{4}4-8[8:1],
{64}5b/4b,Cf,,,,,,,,,,,,,,,{4}1/7h[8:1],6/2h[8:1],{8}5,7,
3/1<6[8:1],2,{4}1>4[8:1],1-5[8:1],1,
{8}2,4,6/8>3[8:1],7,{4}8<5[8:1],8-4[8:1],
8,3/5h[8:1],7/2h[8:1],{16}1,8,1,8,
{8}7bx/2b-4[8:1],6,5/2-6[8:1],6,{4}2/7-3[8:1],{8}2/7-5[8:1],1,
2/7,3,{4}2-4[8:1],2/8-6[8:1],8/1-5[8:1],
{8}1/7-5[8:1],8,{4}7/1-3[8:1],1/8-4[8:1],8,
5/3h[8:1],4/6h[8:1],7/2h[8:1],{8}8b,8b,
2>5[8:1],2,,6<1[8:1],{4}6,{8}3-8[8:1],3,
,7-4[8:1],{4}7,1w5[8:1],1,
{8}7<4[8:1],7,,3>8[8:1],{4}3,{8}7-3[8:1],7,
,2-6[8:1],{4}2,7,{16}1-5[8:1],8,2,7,
{8}1b,{16},,,,2-6[8:1],1,{4}2,{16}7-3[8:1],8,{8}7,
{16},,1-4[8:1],1,{4}1,{16}8-5[8:1],8,{8}8,{16}E2,E3,{8}E4,
3x,4x,2,5,1,6,8,7,
{16}1,2,3,4,1,8,7,6,2,3,4,5,8,7,6,5,
,,,,,,,,{8}3b/8b<5[8:1],3,1/8,2,
6/3,{16}4,5,{8}4,7,5/6,2,3/4,7/2,
{4}1/8-4[8:1],8,{8}6/1>4[8:1],6,8/1,7,
6/3,{16}5,4,{8}5,2,4/3,7,5/6,{16}8/1,7/2,
{4}3/6,{16}2,6,4,8,{8}2b/1b,2/1,3/8-5[8:1],2/1,
8/3,{16}4,3,{8}2,8/1,7-5[8:1],3,7-1[8:1],2,
{4}7-3[8:1],7,{8}2,3/4,7,6/5,
{4}8/1,{8}8,4,3b/7b,7/3,2/6,2/6,
1/5,5/1,{16}2,6,3,7,{8}4>1[8:1],5,6,7,
3>8[8:1],4,5,6,2<5[2:1],3,4,5,
4,3,{4}2,{8}5<8[8:1],4,3,2,
6<1[8:1],5,4,3,7>4[2:1],6,5,4,
5b,6b,{4}7b,{8}3/4,2,1/8,7,
6/5,7,8/1,2,3/4,1/8,5/6,8/1,
2/5,3/7,6/2,7/4,2/8-5[8:1],6,4/8-3[8:1],2,
4/8<5[8:1],6,4/8>3[8:1],2,{4}8-4[8:1],8-6[8:1]*-2[8:1],
{2}8b,{16}2x,6,5,6,1x,5,4,5,
2x,4,3,5,4,6,5,7,2,4,3,7,5,6,1,8,
1x,7,3,4,3x,8,4,5,4x,7,5,6,4,5,3,4,
2,5,1,7,3,6,1,8,3,4,2,6,5,7,3,4,
2,6,5,7,1x,8x,3x,6x,2b,1,3,7,8,6,2b,1,
3,7,8,6,4b,5,3,6,2b,1,3,6,5,7,2b,1,
3x,6,5,7,1bx,8,2,7,3bx,4,2,7,8,6,3b,4,
2,7,8,6,1,8,1,8,2,7,3,6,4,5,4,5,
3,6,2,7,1,8,2,7,{4}1b,{8}E2,E3,
E4,E8,E7,E6,{12}1,2,3,7,6,5,
2,3,4,8,7,6,{4}1b,{12}1,2,3,
4/7,6,5,8/4,1,2,{16}8/3,7,6,5,1,2,3,4,
8,7,6,5,4,3,2,1,{4}8-4[8:1],{8}8b/1b,1,
2,2,{16}3,4,5,6,{4}7/2,{16}1,2,3,4,
5/1,2,3,4,5,6,7,8,{8}1,{16}3,4,{8}3,2/5,
8,{16}6,5,{8}6,4/7,{16}1/5,6/2,7/3,8/4,{4}5bs1[8:3]/1bs5[8:3],
{8},,,,,,E8,E6,
E2,E4,,,,,,,{1}B8/B1/B2/B3/B4/B5/B6/B7/Cf,
E
