&title=プリズムリバー三姉妹のUKハードコアにハマってる方
&artist=モリモリあつし(非可逆リズム)
&first=0.207
&des=M7堤风超长枪管组合
&lv_5=14
&des_5=M7堤风超长枪管组合
&inote_5=
(180){4},,,,,,,,5x/3bxh[8:1],
5/3h[8:1],5/3h[8:1],5/3h[8:1],
6/4h[8:1],6/4h[8:1],6/4h[8:1],6/4h[8:1],
{8}2b/7b,6,6/5,6,{4}6h[8:1]/4h[8:1],6h[8:1]/4h[8:1],
7h[8:1]/4h[8:1],7h[8:1]/3h[8:1],6x/1-4[8:1],1x/7,
8xh[8:1],8xh[8:1],1h[8:1]/7h[8:1],7h[8:1]/1h[8:1],
2h[8:1]/8h[8:1],2h[8:1]/8h[8:1],7h[8:1]/3h[8:1],7h[8:1]/3h[8:1],
{8}6b/4b,4,4/5,4,{4}4/6,7/4>1b[4:1],
{2}8bxh[16:7],{4}E2f/B1/B2,E4f/B3/B4,
{8}6x/5x,8b,6/5,1b,6/5,8b,5/4,1b,
4/3,8b,4/3,1b,4/3,8b,4/3,1b,
5h/3h,8b,5/3,1b,6/4,8b,6/4,1b,
7/5,8b,4/2,1b,7/4,8b,{4}2bh[4:1],
{8}7x,7,7/5x,7,8/4x,8,8/4x,8,
1/3x,1,1/3x,1,{16}1x,8x,7x,6x,{4}1xh[8:1]/5xh[8:1],
{16}1bxh,5x,3h,6,4bh,8,2h,7,1bh,6,3h,7,4bh,8,2h,6,
{4}8bxh[4:3],5,6,7w3[0.3333##0.1667],
{8}7b>6>7b[0.3889##4.3333],(135),(180){4},,,,,,,E7,
E6,E5,E4,
E3,E2,{2}E1,
3h[4:5],5,
{8}6,6,{4}6<1[4:1],{2}4h[4:1],
{8}4,4,8,8,3,3,7,7,
2,2,6,6,1-5[8:1],5,{4}1b,
{8}7/3,5,6/2,4x,6/2,6,4>8>4[4:3],4,
5,5,6,6,6,7xh,7xh,7xh,
{4}7<4[4:1],4v7[4:1],7<4[4:1],4v7[4:1],
{8}1,2,{4}3>8[8:1],3/5x,{8}5,6,
7,7,6/1,6/1,2,2,3/8<5<8[2:1],3,
4,4,3,3,3,2xh,2xh,2xh,
{4}2x>6[4:1],6<2[4:1],2>6[4:1],6>7b[4:3],
{1}Cf,
{8}5/3-1[8:1],6/2,,,4/6-8[8:1],7/3,{16},,,,3,
5,,5,{8}3,{16}3,6,4,7,{8}5h[4:1],{4}8b,
{8}7x-3[8:1],8/6,,,2x-6[8:1],1/3x,{16},,,,7x,
5x,6,4,5,3,4,2,5x-1[8:1],3xh[16:3],,,,,,,6b,
5,6,5,{8}7,7,{16}3b,4,3,4,{8}2,2,
{16}7b,5,6,5,{8}8,8,{16}2b,4,3,4,{8}1,1,
{32}1bx,2,3,4,5,6,7,8,1bx,2,3,4,5,6,7,8,E2,E3,E4,E5,E6,E7,E8,E1,{4}E2,
{8}6x/3x,{16}3x,4,,6x,{8}5,{16}3,6,2,7,{4}1xs5b[8:1]/8x-4b[8:1],
8bx/1bx,E1f/B8/B1,{16}7,4,6,4,5,4,5,3,
4,2,4,3,5,4,6,2,5,3,6,3,{8}7bxh,7bxh,
{16}3,5,3,5,4bx,7,2bx,6,3,7,3,7,2,8,2,8,
1,1,1,1,1,1,1,1,1,1,1,1,{4}1bxh[4:1],
E1f/B8/B1,2bh[16:3]/6bh[16:3],{16}1,7,2,6,3,5,{32},4x,,,3bx,
2x,{16}1xh[8:1],{32},,5bx,6x,{8}7xh[8:1],{32}3bx,2x,{16}1xh[16:9],{8}5x,5x,6,7,
{4}8bxh[8:7],{8}1,1,1,1,1w5b[4:3],1,
,,,,,,,,{4}E1f/B8/B1,
{16}2b,6,4,6,2,6,4,6,2,6,4,6,
8,6,4,6,8,6,4,6,8,6,4,6,8,6,4,6,
8,6,8,6,1,7,1,7,2,8,2,8,2,1,2,1,
2,2,2,2,2,2,2,2,2x-7[8:1],2x,2x,2x,,,,,3b,
6,5,6,4,5,{8}3h[8:1],{16}7b,4,6,4,5,3,{8}5h[8:1],
{16}2b,6,5,6,2,4,{8}2h[8:1],{16}7b,3,4,3,7,5,{8}7h[8:1],
{16}1b,4,3,7b,5,6,3bh,8,2h,7b,4h,7x,{32}5x,6x,7x,8x,1x,2x,3x,4x,
{16}5xh[4:3],,,7x,,,{8}7x,{4}8x,1w5b[8:1],
{1}1b,
,,,,,,{4},,,{16}E1,
E2,E3,E4,
{4}E5,E8,B8,{8}E4,B2,
,,{4}E2,B1,{8}E6,B7,
,,{4}B8/B1,E1,{8}D5/E5,C,
,A1,D2,A2,D3,A3,D4,{32}E8,B7,B6,E6,
,,,,,,,,{4}A1,D2,{8}A4,B3,
,,{4}A8,D8,{8}A5,B6,
,,{4}E8/E2,A8/A1,{8}A5/A4,A6/A3,
{16},,E8,E7,E6,E5,E4,E3,E2,E1,{8}Ch[8:3],,,,8,
{4}8,{8}7/1>4[4:1],6/2,,,,1,
{4}1,{8}2/8<5[4:1],7/3,,,,4,
{4}4h[2:1],{8}6,7,{4}8<5[4:1],
5v8[4:1],8<5[4:1],5,{8}3,2h[8:3],
,8,{4}8,{8}6/1-3[8:1],7/3-5[8:1],,,,1,
{4}1,{8}3/8-6[8:1],2/6-4[8:1],,,,8,
{4}8,{8}6/3,7/2,{4}8/1>4[4:1],
4v1[4:1],1>4[4:1],4,8<5[8:1]*-5[8:1],
8b,{8}3,3,{4}2<1-7>8-2[4:7],{8}6,6,
{4}5,B4,B3,{8}5,5,
{4}6,{8}6,6,{4}7,{8}8<4[4:1],8,
{4}4>8[4:1],8<4[4:1],4>8[4:1],8,
4bxh[2:1],{8}6,6,{4}7-1>2-8<7[4:7],{8}3,3,
{4}4,B5,B6,{8}5,4,
{4}3,{8}4,3,{4}2,1>5[4:1],
5<1[4:1],1,5,6bxh[4:7],
{8}A1/E2/B1f,,,B5f/A5/D5,,,{4}D8/A7/E8f,
{8},E4f/A4/D4,,,{2}B2f/E2/A2,
{8}4bxh[4:1]/A8/E8/B8f,,,3bxh[4:1]/B6f/E7/A6,,,{4}4bxh[4:1]/E1/A1/B1f,
{8},3bxh[4:1]/A5/D5/E5f,,,{2}4bxh[4:1]/B6f/E7/B7,
{8}7bh[4:1]/E2f/B1/B2,,,3bh[4:1]/E8f/B8/B7,,,{4}6bh[4:1]/E2f/B2/B1,
{8},3bh[4:1]/E8f/B8/B7,,,{2}5bh[4:1]/B1/B2/E2f,
{8}4bh[4:1]/B8f/E8/B7,,,3bh[4:1]/B6f/B7/E7,,,{4}2bh[4:1]/E6/B6f/B5,
{8},1bh[4:1]/B5f/B4/E5,,,{2}8bh[4:1]/4x-8b[8:1],
{8}6/3,{16}6,5,{8}7,7,4x>1[16:3],4,{16}8x,7x,6x,5x,
{8}4x<7[16:3],4x,{16}8x,1x,2x,3x,{8}4x,4xh[8:1],8<4[4:1],8,
{4}4b<8[4:1],8b,{8}3,3,2,1h[4:1],
,7-3[8:1],2,7V51[4:1],2,7,{4}4bx/Cf,
{8}2,2,2/8,2,2/7,2,{16}2,6,3,5,
{8}3,3,3/6,3,3/7,3,4bx/8xh[4:1],4bx,
{32}5,6,7,8,1,2,3,4,5,6,7,8,1,2,3,4,5,6,7,8,1,2,3,4,5,6,7,8,1x,2,3,4,
{1}5bxh[4:3]/1bxh[4:3],
{8}8x/4x-1[8:1],7x/3x,,,2/6-2[8:1],5/1,{16},,,,4,
6,3,5,2,4,1,7,2-5[8:1],8,3,1,{4}2x,
{8}7-5[8:1],8/6,,,2-4[8:1],1/3,{16},,,,7,
1,6,2,5,3,6,4,7-4[8:1],3,6,2,{4}7x,
{16}2b,1,4x,7,2,6,{8}1xh[8:1],{16}7b,8,5,2,7,3,{8}8xh[8:1],
{16}1b,7,3,5,2,6,{8}1xh[8:1],{16}8b,2,6,4,7,3,{8}8xh[8:1],
{16}4,8,3,7,2,6,1,5,{32}8,7,6,5,4,3,2,1,8,7,6,5,4,3,2,1,
{2}8bxh[2:1],{4}6b-4b[8:1],6b/8b,
{8}7/2,{16}6,5,{8}7-4[8:1],8/2,7/1-5[8:1],8x,1-3[8:1],4x,
1-5[8:1],5x,1V73[16:5],4x,1,6b,6b/C,6b,
7/2>5[8:1],6/1,2/7,8,1,8/2,7-5[8:1],8-4[8:1],
7x-3[32:3],8x-2[8:1],7x<4<7b[16:7],8x,{4}7x,{16}8x,1x,2x,3x,
{8}4x-8[8:1],4x,6,6,7/2h[4:1],7,8-6[8:1],5,
8-4[8:1],4,8V26[16:5],5,8,4b,4b/C,4b,
{16}3bx,2x,1x,8x,5b,6x,7x,8x,4b,3x,2x,1x,6b,7x,8x,1xV75[16:9],
5bxh[8:1],,,4bxh[8:1],,,{8}3bxh[8:1],{16},2bxh,,,{4}E2f/B1/B2,
{8}7/3,{16}8,4,7-3[8:1],3,6,2,{8}7,1,1-7[8:1],5,
1-5[8:1],6,1V37[16:5],4,1,5b,5b/C,5b,
6,6h[8:1],{16}8,1x,2x,3x,{8}8/4xh[8:1],8,1-7[8:1],2-6[8:1],
1x-5[8:1],2x-4[8:1],1x<6b[8:1],2x,{4}1x,{32}2x,3x,4x,5x,1x,8x,7x,6x,
{4}5x/3bxh[16:3],{8}2/6,2,1/5,1,1/6,1,
1/7,{16}1,2,{8}8/3h[4:1],8,{4}8-6b[8:1],1/8b,
{16}1,5,1,6,2,7,2,7,{32}2,3,4,5,6,7,8,1,2/6,5,4,3,2,1,8,7,
{2}6bxh[8:3]/2bxh[8:3],{4}8bw4b[8:1],8b/C,
{16}1,7,1x,7,2x,6,2x,6,3x,4,2x,5,3,4,2,5,
3,7,3x,7,3x,8,3x,8,2x,1,3x,8,2,7,1,6,
8,5,8x,5,1x,6,1,6,1x,7,1x,7,1x,6,1x,6,
1x,2,3,4,8x,1,2,3,7x,8,1,2,{8}6bxh,6bxh,
{16}2,6,4x,6,3x,5,3x,7,4x,7,2x,6,1,7,1,7,
2,6,4x,5,3x,5,2x,4,2x,4,3x,5,3,6,3,7,
4,8,4x,8,3x,7,3x,7,2x,6,1x,5,8x,4,8x,4,
8x,1,2,3,7x,8,1,2,6x,7,8,1,{4}5bxh[8:1],
{16}2x,5,2,7,4x,7,3,5,3x,7,1,7,2x,5,3x,6,
4x,6,4,5,4x,7,5,6,3x,4,3,6,5x,6,4x,7,
2x,8,2,8,3x,7,3x,7,2x,6,2,6,3x,5,3x,5,
1x,7,2,6,3x,5,4x,4x,2x,8,3,7,4x,6,5x,5x,
4x,6x,4x,6x,3x,5,3,5,1x,7,1,7,2x,6,2,6,
1xh,7,3h,5,1xh,7,3h,5,2bxh,8b,4bh,6b,2bh,8b,4bxh,6b,
3x,7,3,7,2x,6,2x,6,1x,5,1,5,8x,4,8x,4,
{2}7bxh[8:3]/3bxh[4:3],{32}7,8,1,2,,4,5,6,7,4x>1q7p5b[32:159]/8x<5q3p1[32:159],5/1x,6/2x,7/3x,8/4x,1/5x,2/6x,
E
