&title=darasta
&artist=ヒトリエ
&first=0
&des=lEΛf
&des_5=lEΛf
&lv_5=13+
&inote_5=(216){4},B7/B8,,B6/B5,
,B4/B3,,B1/B2,
,E1/B8/B1,,B5/E5/B4,
,B7/E7/B6,,B2/B3/E3,
,A8/E8/E1,,A1/E1/E2,
,A5/E6/E5,,A4/E4/E5,
,A6/E7/E6,,A7/E8/E7,
,A2/E2/E3,,A3/E3/E4,
{8},,4b/5b,5bh[8:5]/4bh[8:5],,,,,,4/6h[4:1],
3,2h[4:1],7,8<5[4:1],,8,
,3h[4:1],,7,,1/8,{4}1/8,
{8},5/3h[4:1],6,7h[4:1],2,1>4[4:1],,1,
,5h[4:1],,3,,5/4,,5/4,
,1/7h[4:1],2,3h[4:1],6,5-1[4:1],,5,
,2h[4:1],,7,,B8/E8/B7,{4}B1/E2/B2,
{8},8/2h[4:1],7,6h[4:1],3,4-8[4:1],,4,
,7h[4:1],,2,,B5/E6/B6,{4}B3/B4/E4,
4/5h[4:1],{8}4,5,4,4h[4:1],,6,
{4}6,{8}3,3h[4:1],,,,,,8,
1,8h[4:1],2,2,2h[4:1],7<4[4:1],
{2}7,{4}3/6,3/6,
5/4h[4:1],{8}5,4,5,5h[4:1],,3,
{4}3,{8}6,6h[4:1],,B2,{4}B6,
{8},1>3[4:1],{4}2,{8}6>4[4:1],5,,2<7[4:1],
{2}2,{4}6/3,6/3,
{8}7/2b,7/2b-4[8:1],,8-6[8:1],,1-5[8:1],,8-4[8:1],
,1-3[8:1],,8-4[8:1],,1>5[4:1],,,B8/B7,
6b-8[8:1],,4-2[8:1],,5-1[8:1],,3-1[8:1],
,5-7[8:1],,4-8[8:1],,5h[8:3],,,{4}8h[1:1],
B4,,B3,
1h[1:1],B7,,B8,
{8},B2/7v5[4:1],{4}B3,{8}B7/1p1[4:1],B6,,5p4[4:1],
,,,,,,,,{4}1h[1:1],
D7,,E8,
8h[1:1],A1,,A3,
{8},,5,5,4/5h[4:1],4,{4}4h[8:1],
{8}5,5,{4}6/5,{8}4/3,3/4,{4}4/3,
{8}5,4,5,4,5,6,5,6,
7,6,7,6,7,8,7,8,
7,8,1,8,1,2,1,2,
3,2,3,2,{2}3bh[4:1],
{8}3,4,3,4,3,2,3,2,
1,2,1,2,1,8,1,8,
1,8,7,8,7,6,7,6,
5,6,5,6,{2}5bh[4:1]/6bh[4:1],
{8}7/1,7/1-3[8:1],,7h[8:1]/1-6[8:1],,7h[8:1]/1-5[8:1],,7h[8:1]/1-3[8:1],
,7h[8:1]/1-5[8:1],,7h[8:1]/1-4[8:1],,1/7h[8:1],,,5,
5/1-3[8:1],,5h[8:1]/1-7[8:1],,5h[8:1]/1-4[8:1],,5h[8:1]/1-6[8:1],
,1/5h[8:1],,5/2,{2}5h[4:1]/2h[4:1],
{8}1/8,1/8b-6b[8:1],,1h[8:1]/8b-4b[8:1],,1h[8:1]/8b-2b[8:1],,1h[8:1]/8b-5b[8:1],
,1h[8:1]/8b-3b[8:1],,1h[8:1]/8b-4b[8:1],,8/1h[8:1],,,4,
4/8-5[8:1],,4h[8:1]/8-3[8:1],,4h[8:1],,4/8,
{1}4h[2:1]/8h[2:1],
{8}8/4,2,7,3,,6,5-7[8:1],7V13[4:1],
8,3-5[8:1],4,4,,6,4/3,3/2,
1,8,7,3,,6,3-5[8:1],5-1-7[4:1],
6,7-3[8:1],6,6,,6/7,8/7,1/8,
8,2,7,3,,3,4-2[8:1],2V86[4:1],
1,6-4[8:1],5,5,,8/1,8/1,8/1,
2,7,3,6,,4,2,8,
6,1w5[4:1],B8/B2,1,,A5f,,,{1}8h[1:3],
{8},,,,2,3,4,4,
{1}4h[4:5],
{8},,,,6,5,{4}4,
{1}4h[4:11],
{8},,,,5,6,7,8,
{1}8h[4:3],
{16}8x,7x,6x,5x,4x,3x,2x,1x,{2}8b,
{8}1/8,8/1-3[8:1]*-4[8:1],,8-6[8:1]*-5[8:1],,1-5[8:1],,8-4[8:1],
,8-6[8:1],,1-3[8:1],,B6/E6,{4}B7/E8,
{8}5/4,5/4-8[8:1],,5-1[8:1],,4-2[8:1],,5-7[8:1],
,,,1/8,{2}1h[4:1]/8h[4:1],
{8}4,4<8[4:1],,8>4[4:1],,4<8[4:1],,8V24[4:1],
,4V68[4:1],,8q4[4:1],,4,,,A7/E7,
E6/A6/5>1[4:1],,1<5[4:1],,5V31[4:1],,1V75[4:1],
,5-1[4:1],,,{2}Cf,
{8}2/3,3/2-7[4:1],,6-3[4:1],,2v8[4:1],,5v7[4:1],
,4>2[4:1],,1-6[4:1],,,,,7/6,
6/7v5[4:1],,2pp4[4:1],,8v6[4:1],,3,
,3,,5/2,{2}5h[4:1]/2h[4:1],
{8}E8,E2,,B7,,C,,E4,
,E6,,C,,B2,,E2,
1/8,8/1,,1b-5b[8:1],,,,4/8,
{1}4h[8:7]/8h[8:7],
{16},,1x,2x,3x,4x,5x,6x,7x,8x,{8}1bxh[16:3],,,1,
1,2q5[0.4167##0.4167],3,,2h[16:3],,,,,7<4[0.1389##0.1389],
7,,3,4/3,3/2,
1,1,8V26[0.4167##0.4167],7,,8h[16:3],,,{4}7h[8:1],
{8}5/4,5/4,,7,8/7,1/8,
1,1,1-5-8[0.4167##0.4167],8,,1h[4:1],B5,B6,
{4}A8,{8}5/4,5/4,,8/1,8/1,8/1,
2,7,3,6,,4,2,5,
7,4,{4}3h[4:1]/6h[4:1],{8},3/6,2/7,8/1,
1/8,7,2/1,6,,7/8,2,8/1,
6,1/3,2,1,,3/4,4/3,4/3,
5,4/3,5,4/3,,5,4/3,2,
4/3,2,3/4,2,,6/5,5/6,5/6,
4,5/6,4,5/6,,4,5/6,7,
5/6,7,6/5,7,,8/1,1/8,1/8,
6,8/1,3,1/8,,6,8/1,3,
8/1,8w4[4:1],,,,,,,{4}5/4,
5/4,{8},5,{4}5,
{8}5,4,{4}5,{8},5,{4}5,
3/6,3/6,{8},3,{4}3,
{8}3,4,5,6,,5,5,{16}2,3,
{8}4,6,{4}6,{8},5,{4}5,
{8}7,3,{4}6,{8},1,1,{16}8,7,
{8}6,4b,7b,3b,6b,{16}2b,7b,{8}5b,4b,
7b,1b,2b,6bh[8:3],
E
