&title=マリオネットダンサー
&artist=ひらぎ
&first=0.4
&des=Tian7!#
&lv_5=13+
&inote_5=(112)
{8}1>4[8:1],,7,,6<1[8:1],,3,,
{8}2>5[8:1],,8,,7>2[8:1],,67,,
{8}5pp8[8:3],,1,,8qq5[8:3],,1,,
{8}2,,,{24},,3,{8}4-8[24:2]*v1[24:2],6/5,4,,
{24}3h[24:2],,5,{8}2-4[8:1],8,7,{24}6h[24:2],,4,{8}7-5[8:1],3,2,
{24}1h[24:2],,3,{8}2-4[8:1],1,8,{24}7h[24:2],,5,{8}6,{24},,4,5,4,6h[8:1],
{24},,8,7h[24:2],,1,8h[24:2],,2,1h[24:2],,3,8,,8,5,,5,2-5[24:2],,,3v8[24:2],,,
{24}2,,,3,,,,,7,1,,,1h[8:1],,,8,,,7h[8:1],,,,,3,
{24}8b-5[24:2],,,,,1,8,,,2,,,3,,2/4,,,6,5,,4/7,,,8b-3[8:1],
{24},,8b-5[8:1],,,,,,,,,,4h[24:5],,,,,7,3,,7,3,,,
{24}1-4[24:2],,,7/8,,,1/8,,,7,,5/6,,,5/6,,,5/6,,,4,5,,3/5,
{24},,2pp5[24:13],4pp7[8:4],,,,,,,,,,,,,,,,,,,,,
{24}1-4[24:2],,,,,8,1,,,7,,,6,,5/7,,,4,5h[24:2],,3,4h[24:8],,1,
{24},,1,,,2,5h[24:2],,2,6h[24:2],,2,7h[24:2],,1,,,6,2,,6,2,,6,
{24}1-6[24:2],,,,,5,1-4[24:2],,,,,7,1-5[24:2],,,,,6,1,,,7z3[24:9],,8s4[24:7],
{24},,,,,,,,,,,,,,,,,,1/3,,8-4[24:2],2,,7b,
{24},,1/8,,,,1/3,,8-4[24:2],2,,7,,,1/8,,,,2,,5,2,,6h[8:1],
{24},,5,7,,7,1s5[24:4],,1,8,,,1h[8:1],,,,,,2,,5,2,,6,
{24},,6,5/7,,4,3/5,,,3,,,2h[8:3],,,,,1,8,7,6,5,,1h[8:1],
{24},,7,2h[24:2],,6,3h[8:3],,,8,,8,,,,,,,8/6,,1q5[24:2],7,,2,
{24},,8/1,,,,8/6,,1q5[24:2],7,,2,,,8/1,,,,7,,4,6,,3h[8:1],
{24},,1,2h[24:2],,8,1w5[24:2],,7,2,,,1,,,,,3,7,,7,1,,1,
{24}5,,5,2,,2,8,,8,4,,4,6h[8:1],,,4,,3/5,,,3/5,,,3/5,
{24},,3,4,3,4,3,4,3,4,3,4,2,,2,8,,8,5,,5,1,,,
{24}1bq5[24:2]/5b<4[8:3],,,,,,1/5,,,,,,,,,,,6,5,,3,4,,2/5,
{24},,2/5,,,6,3,,7,4,,8h[8:1],,,1,7,,7,6,,6,5,,5,
{24}4,,,3h[24:2],,4,2,,,6h[24:2],,5,7qq5[8:1],,,5v8[8:1],,,7,,,3,,,
{24}2,,1,2,3,4,5,6,7,8,1,2,3h[24:2],,5,4h[24:2],,6,5,,6,5,,,
{24}4/6,,,3/5,,,2/5,,3,4,,,3/6,,4,5,,,4/7,,5,6,,,
{24}7,,8,7,6,5,4,3,2,1,8,7h[8:1],,,4,6,,6,1,,1,5,,5,
{24}3h[8:1],,,4,,,3,4,3,4,2,5,2,,3,7,3,7,3,,6,5,6,5,
{24}7,,3,4,3,4,2,,5qq7[24:7],1qq4[24:6],5,1,5,,,,,,,,,,,,
{8}8<5[8:1],,2,,3>8[8:1],,6,,
{8}7<4[8:1],,1,,2<7[8:1],,32,,
{8}4qq1[8:3],,8,,1pp4[8:3],,8,,
{8}7,,,{24},,6,{8}5q1[24:2]*v8[24:2],3/4,5,,
{24}3h[24:2],,4,3,,,4h[24:2],,5,4,,,5h[24:2],,6,5-2[24:2],,,4/7,,,5/6,,,
{24}7h[24:2],,8,7,,,8h[24:2],,1,8,,,1h[24:2],,2,1v6[24:2],,,7/8,,,1/2,,,
{24}3h[24:2],,4,2,,1,3,1,3,1,,8,6,8,6,8,,1,7,,7,3,,3,
{24}8,,8,2,,2,8,,8z4[24:7],1,,,,,,,,,8,,,,,,
{24}8bv5[24:2],,,,,1,8,,,2,,,3,,2/4,,,6,5,,4/7,,,8bpp2[8:1],
{24},,8bqq6[8:1],,,,,,,,,,3h[24:5],,,,,6,2,,6,2,,,
{24}1>4[24:2],,,7/8,,,1/8,,,7,,5/6,,,5/6,,,5/6,,,3,5,,2/6,
{24},,5,1<2[8:4],,6,3,,3,7,,7,2,,,,,,,,,,,,
{24}1>4[24:2],,,,,8,1,,,7,,,6,,5/7,,,4,5h[24:2],,3,4h[24:8],,1h,
{24},,1h,,,2,5h[24:2],,2,6h[24:2],,2,7h[24:2],,1,,,6,2,,6,2,,6,
{24}1<6[24:2],,,,,5,1>4[24:2],,,,,7,1-5[24:2],,,,,6,1,,,7V14[24:9],,8z4[24:7],
{24},,,,,,,,,,,,,,,,,,1/3,,8-4[24:2],2,,8b/7b,
{24},,1/8,,,,1/3,,8-4[24:2],2,,7/8,,,1/8,,,,2,,2,6,,6h[8:1],
{24},,4,7,,7,1V75[24:4],,1,8,,,1h[8:1],,,,,,2,,5,2,,6,
{24},,6,4/7,,3,2/5,,,3,,,2h[8:3],,,,,3,4,5,6,7,,1h[8:1],
{24},,7,2h[24:2],,6,3h[8:3],,,8,,8,,,,,,,8/6,,1q5[24:2],7,,1/3,
{24},,7/1,,,,8/6,,1q5[24:2],7,,1/3,,,7/1,,,,7,,4,6,,3h[8:1],
{24},,1,2h[24:2],,8,1q6[24:2]*p4[24:2],,7,2,,,1,,,,,3,7,,7,1,,1,
{24}5,,5,2,,2,8,,8,4,,4,6h[8:1],,,4,,3/5,,,3/5,,,3/5,
{24},,3,4,3,4,3,4,3,4,3,4,2,,2,8,,8,5,,5,1,,,
{24}1bq5[24:2]/5b<4[8:3],,,,,,1/5,,,,,,,,,,,6,5,,3,4,,2>4[24:2]/5,
{24},,5<7[24:2],,,2v5[24:2],,,5,,,2,,,6,4,,4,8,,8,2,,2,
{24}5-2[24:2],,,4-8[24:2],,,5,,,4,,6-3[24:2],,,7,,,6/8-5[24:2],,,1,,,8/2>2[24:10],
{24},,,,,,,,,2V86[24:6],,,,,,,,,,,,,,,
{24}8b,,,,,6h,4h,,5h,3h,,4h/5h,{32},3h,2h,1h,{24},3h,5h,,4h,6h,,5h,7h,
{24},7h,3h,,,2h/6h,,3h,5h,,2h,,{32},1h,2h,3h,{24},7h[24:4],,,,5,8,,8,2,
{24},2,4,,4,1,,1,7,,7,3,,3,6,,1/5,,,1/5,,,1/5,,
{24},8,4,8,4,8,4,8,4,8,4,1h[24:2],,8,2,,2,4-8[8:3],,4,3p5[8:2],,,4,
{24},,,,,,,,,,,,,,,,,,,,,,,,
E
