&title=TA・DA ☆ YO・SHI
&artist=Y&Co.
&first=-0.061
&des=m
&lv_5=14
&des_5=m
&inote_5=
(160){4},{8},,,,,,5/3,
4,4,4,4/6,5,5,5,
5/3,4,4,4,5/3,3,5/2,2,
5/2,2/6,2/7,2/8,1/2,4/3,{16}4/5x-2[8:1],6x,7x-4[8:1],8x,
{8}5/1x-6[8:1],7,1,5,1/8w4[8:1],6/2,{4}8b,
{16}1,2,3,4,8/5,7,6,5,{8}1/4,{16}4,3,6,5,7,5,
6,3,4,3>7[8:1],6,4,7,3,,,,,,,,,1/7,
2,3,4,5/8,7,6,5,2,8,3,7,{8}4,{16}4,5,
3,4,3,6,5,6,3,4,3,7,5,6,2,4,3,6,
1,2,3,4,8/5,7,6,5,{8}1/4,{16}6,5<1[8:1],7,4,6,5,
,,4,3>7[8:1],5,4,6,3,,,,,,,,,1/7,
2,3,4,5/8,7,6,5,2,7,3,6,{8}4,{16}4,7,
3,4,3,6,5,6,3,4,3,7,5,6,2,4,{8}3,
3,2,1/8,7-4[8:1],6,4/7,,5/4,
6,7,1/8,2-5[8:1],5,2/7,,4/5,
6,7,4/8,3,2,1/5,{16},,,,2,
4,3,6,5,7,5,6,3,4,2,6,5,7,{8}4/5,
3,3,5/4,6,7/5,7/5>2[8:1],,5/8-4[8:1],
,8/1,2-5[8:1],1/6,5/2,,,7/1-5[8:1],
,1/8,7-1[8:1],5-2[8:1],7,5,{16},,,,7,
5,6,2,4,3,6,5,7,5,6,2,4,3,{8}5,
{4}3-8[8:1],3/4,{8}7,4/5-8[8:1],,5,
2,3,4/7,6,4/5,4-7[8:1]/3-8[8:1],,4/3,
,1,2,3,4/8,4-1[8:1]/8-5[8:1],,Cf/4xs8[0.3984##0.1641]/8xs4[0.3984##0.1641],
,Cf/5xz1[0.3984##0.1641]/1xz5[0.3984##0.1641],,Cf/4xs8[0.3984##0.1641]/8xs4[0.3984##0.1641],,5x/1x/Cf,,,,2,
4,6,3/7,4,5/3,6h[8:1]/2h[8:1],
,2,1/5,6,3/7,2,7/3,4/6,
,2,7,2,,3/7-3[8:1],,7b/3-8[8:1],
,4b/3<1[4:1],,3/2-6b[8:1],,2b/Cf,,,{4}C,
C,C,C,
B8/B7/B1/B2/C,B1/B2/C/B8/B7,B8/B7/B1/B2/C,B1/B2/C/B8/B7,
B7/B6/C/B5/B4/B3/B2/B1/B8,B7/B6/C/B5/B4/B3/B2/B1/B8,B7/B6/C/B5/B4/B3/B2/B1/B8,B7/B6/C/B5/B4/B3/B2/B1/B8,
B7/E4/E5/E1/E8/E6/E7/E3/B8/B2/B3/B4/B5/C/B6/B1/E2,B7/E4/E5/E1/E8/E6/E7/E3/B8/B2/B3/B4/B5/C/B6/B1/E2,B7/E4/E5/E1/E8/E6/E7/E3/B8/B2/B3/B4/B5/C/B6/B1/E2,B7/E4/E5/E1/E8/E6/E7/E3/B8/B2/B3/B4/B5/C/B6/B1/E2,
{8}4x/6x,3,2,1,5/1,6,7,8,
8/1,2,3,4,4/7,7,4/6,6,
4/6,6/3,2/7,1/7,8/7,5/6,{16}5/4-7[8:1],3,2-5[8:1],1,
{8}4x/8>3[8:1],2x,8,B3/B4/E4,6,8/2,{32}3/8-4[0.375##0.1406],4,5,6,7,8,1,2,
{16}3/8b,{32},,,,3b/6,2,1,8,,,,,,,7/8-4[8:1],1,2,3,{8}7,{4}8/2-5[8:1],
{16}5/2b,{32},,,,6b/4,7,8,1,,,{8}2-5[8:1],8-4[8:1],2,{4}8,
{8},7-4[8:1],8-3-8[4:1],7,8,4<7[16:3],,4,
1,2,2-5-2[4:1]/6-1-6[4:1],1/5,{2}6/2,
{32}1/7b,2,3,4,,,7/1b,6,5,4,,,{8}1-5[8:1],8-3[8:1],1,{4}8,
{32}1b/4,8,7,6,,,1b/5,2,3,4,,,{8}B6/E6/B5,2/8w4[8:1],1,{4}8,
{8},8,7/1-5[8:1],7-3[8:1],1>4[8:1],7,{4}1-6b[8:1],
1b/7-4b[8:1],7b/2-5b[8:1],2b/8-4b[8:1],{8}8b/3,1,
2,5,4/6,3,2/4,2-5[8:1],6,2/1,
,,6/5,3-8[8:1],5,3/5-1[8:1],{32},,,,5/1,2,3,4,
5,6,7,8,1,2,3,4,5,6,7,8,1,2,3,4,{8}5bx,8x/4bx,7/3b,6/2b,
{16}8bx/4x,1bx/5x,2bx/6x,3bx/7x,4bx/8x,5bx/1x,{8}6bxh[8:3]/2xh[8:3],,,{4}B2/B3/C/B7/B6,
{8}3/5,2,1/5,6,7/1-4[8:1],7-4[8:1],1,7,
3,7<4[8:1],4,7,2-5[8:1],1-6[8:1],2z6z2[4:1],1,
,,,6,8/4,8-5[8:1]/4-1[8:1],,Cf/8xs4[0.3984##0.1641]/4xs8[0.3984##0.1641],
,Cf/1xz5[0.3984##0.1641]/5xz1[0.3984##0.1641],,Cf/8xs4[0.3984##0.1641]/4xs8[0.3984##0.1641],,1x/5x/Cf,,,2,
3,7/4,6,2/5,3,4/5,6,
4/7,4h[4:1],,6,7-3[8:1],3h[16:1],{4}7,
{16}2,4,2,4,1,5,1,5,8,6,8,6,7,6,5,6,
4,5,3,6,5,7,3,4,2,7,8,7,2-6[2:1],1,{8}2h[8:5],
{4},,,{32}2/7-4[8:1],3,4,5,6,7,8,1,
{16}2/7b,{32},,,,3b/5,2,1,8,,,{8}7,{32}8/7-4[8:1],1,2,3,,,,,{4}7/3-8[8:1],
{16}3b/8,{32},,,,7b/2,6,5,4,,,{8}2,1-5[8:1]/8-5[8:1],2,{4}1/8,
{8},2-5[8:1],8-3-8[4:1],2,8,4>1-5[4:1],,4,
5,6,{4}8/4-8[8:1],{32}4/7/C,6,{16}5,{32},,1/7,2,{4}3-8[8:1],
{16}3b/7,{32},,,,7b/1,6,5,4,,,{8}3-7[8:1],4-1[8:1],3,{4}4,
{32}1/7b,2,3,4,,,7/3b,6,5,4,,,{8}B4/B3/E4,2/8w4[8:1],1,{4}8,
{8},2,7-4[8:1],2-5[8:1],7,2,{4}8-4[8:1],
2-6[8:1]/8-6[8:1],8-4[8:1]/2-4[8:1],8/2,{8}5/6,B8/B1/B2/B7/E8/E2/E1/A8/D8/A7/A1/D1/A2/D2,
,,,,,,2/7,C/B6/B5/E5/B4/E4/B3/E6/D5/A4/A5,
,,3,4/2-6[8:1],1/5h[8:3],2,{32},,,,1b,6x/2,7x/3,8x/4,
5/1h[2:1],6,7,8,,2,3,4,5,6,7,8,,2,3,4,{8}5,4/8b,3/7b,2/6b,
{16}4bx/8x,5bx/1x,6bx/2x,7bx/3x,8bx/4x,1bx/5x,{8}2bxh[8:3]/6xh[8:3],,,{4}C/B8/B1/B4/B5/B7/B6/B2/B3/E6/E8/E2/E4,
{16}6,5,7,5,6,3,4,2,,,2,4,3,6,5,7,
3,4,3,4,2<6[8:1],6,3,5,{2}2,
{16}6,5,7,4,6,3,4,2,5,4,6,5,,6,5,7,
5,7,2,4,2,7,5,7,1,3,2,8,6,7,2,5,
3,4,2,5,3,6,5,7,,,7,5<1[8:1],6,4,7,5,
,4,2,4,3>7[8:1],6,5,7,{2}3,
{16}2,4,3,7,5,6,3,4,2,4,3,4,{8}3,{16}6,4,
7,5,7,2,4,2,6,8,6,3,1,3,8,1,{8}8,
{4}5b/4b,3b/1b,{16}8b/6b,,,7b/2b,,,{8}5b/4b,
1/8,7-3[8:1]/2p6b[8:1],4/5,7/2,,,{4}E1/D2/A2/D3/A3/D4/A4/D5/A5/D6/A6/D7/A7/D8/A8/A1/E5/B4/E3/B3/B2/E2/B1/B8/C/B5/E6/B6/E7/B7/E8/E4/D1,
E
