&title=Everything Will Be One
&artist=void (Mournfinale)
&first=0.070
&des_5=TraNsfor-Mai "STAR"
&lv_5=14
&des=TraNsfor-Mai "STAR"
&inote_5=(170){4},,,,{1}5/4>7>4[4:11],
5h[4:3],
6h[4:3],
{2}5,{4}4,5,
{1}4h[4:3]/6<3>6[4:11],
5h[4:3],
{8}4h[4:3],,,,,,,5,
{1}5>4v1>2b[2:1]*<6v1<8b[2:1],
{8}4/3,4/3pp5[4:1],,8h[4:1],,,{4}4,
{8}5/6,5/6qq4[4:1],,1h[4:1],,,{4}5,
{8}3/6,3pp5[4:1]/6qq4[4:1],,,,,1,2,
3/5,5/3pp5[4:1],,7h[4:1],,,{4}4,
{8}6/2,6/2V46b[4:1],,1h[4:1],,,{4}8h[8:1],
{8}7/3,3/7V53b[4:1],,8h[4:1],,,1,2,
3/7,3h[8:1]/7h[8:1],,5h[8:1]/1h[8:1],,1/5,,6/3,
3/6>2[8:3],,,2<6[8:3],{16},,,,5b,4b,3b,2b,
{4}1bh[4:3],{16},,,,,,,,E8,E7,E6,E5,
{8}E4h[8:3],,,C,{16},,,,,,E8,E7,
E6/B5/E5,,,E2/B2/E3,,,{8}E8/B7/E7,{16}A3/E4/A4,,,A8/E1/A1,,,{8}A6/E6/A5,
{16}2,3,4,5,1,8,7,6,1,2,3,4,1,8,7,6,
{8}5b/Ch[8:3],,,8,{4}8<4[4:1],{16}E2,E3,E4,E5,
{8}E6h[8:3],,,C,,,{4}6h[4:1],
{16}3,2,1,8,4,3,2,1,5,4,3,2,6,5,4,3,
{12}8b,8,8,6b,6,6,4b,4,4,{24}2b,1,8,7,6,5,
{8}4bh[1:2],{16},,,,B1,B8,B7,,,E6,,,{8}E7,
{16}E8,,,E1,,,{8}E2,{16}E3,,,E2,,,{8}E1,
{4}C,{24}E4,E3,E2,E1,E8,E7,{4}E6h[4:1],C,
{16}A2,E3,E4,A4,B1,C,B5,A5,A8,E8,E7,A6,A2,A3,A4,A5,
{4}1h[4:1]/A6,{16}7,6,5,4,7,6,5,4,1,2,3,4,
1,2,3,4,5,6,7,8,4,3,2,1,8,7,6,5,
{4}4/1h[4:1],{16}4>8[4:1],5,6,7,A4/8<4[4:1],A3,A2,A1,4/A8,A7,A6,A5,
{8}A4/8b-4b[8:5],,,E2/B2/E3,,,{4}E7/B6/E6,
2-8-3-7[2:1],4-6b[8:1],4,{8}5,5,
{4}5,7<3[4:1],3>7[4:1],7,
2-6[8:1],1b/2b,7-3[8:1],8b/7b,
1q5[4:1],{8}5q1[4:1],5,,,{4}7-3b[8:1],
7-5-8-4[2:1],1-3b[8:1],1,{8}2,2,
{4}1<6[8:1],1>4[8:1],1-5[8:1],1q5>6[4:3]*p5<4[4:3],
{1}1/B1/B5/Cf,
{4}7V53[4:1],{8}3V57[4:1],3,,,{4}1-5[8:1],
{8}1b/7,7,4-2[8:1],4,6-4[8:1],6,{4}8h[8:1],
{8}2,2,7-5[8:1],7,1-7[8:1],1,{4}4h[8:1],
{8}2,2,6>4[8:1],6,8>2[8:1],8,{4}3h[8:1],
{8}5,5,2-4[8:1],2,8-6[8:1],8,{4}1h[8:1],
{8}6,6,4,4,5,5,3,{16}3,4,
{8}3,{16}6,5,{8}6,{16}3,4,{8}2,{16}6,5,{8}7,{16}3,4,
{8}2,2,3/5,3/5,4/6,4/6,5/7,5/7,
{16}4b,8,4,8,5b,1,5,1,{32}6b,5,4,3,2,1,8,7,6,5,4,3,2,1,8,7,
{1}Cf/6>2[2:1]*<2[2:1],
{16}E2,E3,E4,E5,E1,E8,E7,E6,2,8,2,8,1w5b[8:1],7,1,7,
{4}1,{16}2,8,2,8,3,7,3,7,4,6,4,6,
5,4,3,2,5/1,6,7,8,1/5,4,3,2,1/5-1[8:1],6,7,8,
{4}1/5b,{8}7V53[4:1],7,3-7[8:1],1,1-5[8:1],1,
8V24[4:1],8,4-6[8:1],4,8,8,{4}1w5b[8:1],
1,{16}7,1,7,1,6,2,6,2,5,3,5,3,
4,5,6,7,8/4,3,2,1,4/8,5,6,7,8/4-8[8:1],3,2,1,
{4}8/4b,{8}8/2-4[8:1],2,2/8-6[8:1],8,8/5-1[8:1],5,
{4}7-5[8:1],{8}4/7,4-8>1-3[4:1],,6/4,{4}6w2b[8:1],
6,{16}5,7,5,7,4,8,4,8,3,1,3,1,
2,3,4,5,6/2,1,8,7,6/2,3,4,5,6/2-6[8:1],1,8,7,
{4}6/2b,{8}1v4[8:1],7-5[8:1],1,7,2-4[8:1],8v5[8:1],
2,8,{4}1-5b[8:1],1>4b[8:1]*<6b[8:1],1w5b[8:1],
1,{16}2,8,2,8,3,7,3,7,4,6,4,6,
5,4,3,2,6,5,4,3,7,6,5,4,8,7,6,5,
{1}1bh[4:3]/4>6[2:1],
{8}E1/Ch[4:3],,,E8,,E7,,,2/6,
{16}4,5,{8}3,{16}8,1,{8}7,{16}5,6,4,3,2,1,
{8}8/6,6-2[8:1],,8/6,{4}8>6[4:1],{24}7h[4:1]/D1,D2,D3,D4,D5,D6,
{48},,,,,,,,,{16}3,{8}2/4,1/5,{16}6/8,,,6,{8}5/7,8/4,
{16}3,1,3,1,2,8,2,8,1,7,2,6,3,5,{24}4,5/3,6/2,
{4}7/1-5[8:1],{8}1/8,8,{4}8<2[4:1],{24}1h[4:1]/D8,D7,D6,D5,D4,D3,
,,,{8}6,{16}2,3,8/4,1,{4}2w6[8:1],2,
{16}4,8,4,8,3,7,3,7,2,6,2,6,{24}1,8,7,6,5,4,
{12}3/7b,7,7,2b,2,2,{16}8b,7,6/2,3,4/7,6,5/1,2,
{8}3/7bh[2:3],{16},,,,B4,B3,B2,,,E1,,,{8}E2,
{16}E3,,,E4,,,{8}E5,{16}E6,,,E5,,,{8}E4,
{4}2/6,{16}3,5,3,5,2,6,2,6,3,7,3,7,
4-2[8:1],6,6,4,{4}4,{16}1,7,1,7,2-6b[8:1],8,8,2,
{4}2,{32}2x/8h[8:1],3x,{16}4x,{32},,,,3x/8h[8:1],4x,{16}5x,{32},,,,4x/8h[8:1],5x,{16}6x,,,5,
1,5,1,4,8,4,8,3,7,4,6,2,8,3,5,
{4}1-5[8:1],{16}5/1b,6,7,8,1/3,,,5/7,,,{8}4/8,
{16}2,6,2-4[8:1]*-5[8:1],6,2,6,{8}2-8[8:1]*-7[8:1],,2-6[8:1],,2,
{1}8b-3-1-4b[2:7]*-5-7-4b[2:7],
,,,{8}6,
5,{16}4,4,,3,,4,,5,{8}5,6,
3,4,{16}5,5,,6,,5,,4,{8}4,3,
{16}E3,B3,B4,E5,E1,B8,B7,E7,A2,E3,E4,A4,A1,E1,E8,A7,
2,6,2,6,3,5,3,5,4,4,6,6,3,3,4,4,
{8}5bpp4[4:1]/3bqq4[4:1],5b/3b,,,,,A1/A7,A6/A2,
5b<7v4[4:1]/3b>1v4[4:1],3b/5b,,C,,,A7/A1,A6/A2,
6b/3b<6[4:1],3b/6b,{4}6<1[4:1],1>4[4:1],4-8[4:1],
{8}6,6-2[8:1],,1,{4}1w5b[8:1],1,
{1}Ch[4:3]/7<2[2:3],
Ch[4:3],
{8}1>3v5[8:3]*<7v5[8:3],,,,,,,3,
3h[8:3],,,4h[8:3],,,{4}5h[4:1],
{1}6-2[4:3],
{2}6-2b[8:1],{4}6w2[8:1],6,
{8}4/7,{16}2,3,{8}4v1[8:1],7-5[8:1],4,7,2-5[8:1],1,
2/8,{16}8,7,{8}6-2[8:1],3-5[8:1],6,3,{4}8-4b[8:1],
{8}8/1,{16}1,2,{8}3-6[8:1],7-4[8:1],3,7,{4}1-5b[8:1],
{8}1/8,{16}8,7,{8}6-2[8:1],3-8[8:1],6,3,{4}5-1b[8:1],
{8}5/2,3,{4}6b/4b-8b[8:1],{8}4/7,6,{4}3b/5b<1b[4:1],
{16}1/D6,2/D7,3/D8,4/D1,{4}5>1[4:1],{16}1/D5,8/D4,7/D3,6/D2,{24}5/E1,E8,E7,E6,E5,E4,
{12}E3/6w2[8:1],6,{6}6,{24},,,,{8}4-2[8:1],4,8-6[8:1],8,
{16}1/8,2,{8}3-7[8:1],6,{16}3/6,5,{8}4v1[8:1],8,{16}4/8,1,{8}2,
{24}E7,E6,E5,E4,E3,E2,{4}E1h[8:1],{8}4-8[8:1],7,{16}4/7,6,{8}5,
{24}2b,3,4,5,6,7,8,1,2,3/6b,5,4,3,2,1,8,7,6,{4}5/1b,
{8}3/4,3/4,2/1,1/2,8/7,8/7,6/5,6/5,
{16}2,3,4/8,7,6/1,2,3/7,6,{24}5/8b,1,2,3/8b,7,6,5/8b-4b[8:1],1,2,3/8b,7,6,
{4}5/8b,{16}A1,E2,E3,A3,A8,B8,C,B4,A7,E7,E6,A5,
A1,E1,E8,A7,A2,B2,C,B6,A3,E4,E5,A5,{24}A1/D2,A2/D3,A3/D4,A4/D5,A5/D6,A6/D7,
{1}A7/D8/Cfh[64:1],
E
