&title=Grip & Break down !! [BlackY Remix]
&artist=BlackY & SOUND HOLIC feat. Nana Takahashi
&first=0
&des=Alea fracta est!
&lv_5=14
&des_5=Alea fracta est!
&inote_5=
(165){4},{1},{4},,,{16}7/1,
,,6/1,,,{8}5s1[16:7]/1s5[16:7],{16},,,,,,,,,,,,8/2,
,,8/3,,,{8}8-5[16:7]/4p5[16:7],{16},,,,,,,,,,,,8/4,
,,8/3,,,{8}2v5[16:7]/8v5[16:7],
{16},,,,,,,,,,,,8/4,,,7/3,
,,2,6,1,7,3,8,2,6,4,7,2,6,3,5,
{4}4,{24}4,5,4,5,4,5,4,5,4,5,4,5,4,5,4,5,4,5,
{16}4,,,7/5,,,{8}2/4,,6qq8[8:7]/3pp1[8:7],,,,,,,,,,,5/4,
6,3,7,2-8[8:1],8-4[8:1],,,,5,
3,6,7-4[8:1],4-8[8:1],,,,3,
5,2,1-5[8:1],6,7,8-3[8:1],
,2-5[8:1],,7-4[8:1],,8,,,,5,
2,{16}6,5,{8}7-3[8:1],3>8[8:1],,,,2,
7,{16}3,5,{8}4-8[8:1],8>3[8:1],,,,6,
4,{16}7,1,{8}8-4[8:1],3,2,1,
5,5pp8[8:3],{16},,,,,,,,,,3,4,
2-5[8:1],,,1,{8}2,8,{16}7-4[8:1],,,8,{8}7,2,
{16}3-8[8:1],,,4,{8}3,5,{2}6<1[8:1]/2>5[8:1],
{16}8-4[8:1],,,7,{8}8,6,{16}5-1[8:1],,,4,{8}5,3,
{16}2v5[8:1],,,1,{8}2,8,{2}7-3[8:1]/8-4[8:1],
{16}2/1-5[8:1],,,8,{8}1,6,{16}8/7<4[8:1],,,1,{8}7,3,
{16}1/2-5[8:1],,,8,{8}2,7,{2}6-1[8:1]/4-1[8:1],
{16}8/7h[8:3],,,6,,,{8}5,{16}1/2h[8:3],,,3,,,{8}4,
{4}6-1[8:1]/1-5[8:1],6/1,7-3[8:1]/3-8[8:1],3/7,
{16}2,5,1,7,4,6,3,8,1,5,2,8,3,7,4,6,
{8}5v2[8:1],7-4[8:1],5,7V13[8:1],,5-1[8:1]/7-4[8:1],,7/5<8[8:1],
,5,2,3,{4}4-2[8:1]*-8[8:1],4b,
{8}7/1-5[8:1],2,1/7<4[8:1],8,7,{16}3,2,{8}1-5[8:1],7-5[8:1],
1-4[8:1],7-3[8:1],1,7,{4}8bw4[8:1],8b,
{8}2-5[8:1],7-3[8:1],2,7<4[8:1],,7-3[8:1]/2-5[8:1],,7/2V48[4:1],
,2,7,6,{4}5-8[8:1]*-1[8:1],5b,
{8}4/3,2,5/6,7,8/1,{16}7,6,{8}5-1[8:1],3,
{4}5,{32}4,5,4,5,,,,,6/1b,2,{16}3,{32},,8b/4,7,{8}6,3,
8-4[8:1],5-2[8:1],8,5<8[8:1],,3-1[8:1]/5-1[8:1],,3/5V73[4:1],
,5,2,1,{4}8-5[8:1]*-3[8:1],8b,
{8}1/7-3[8:1],6,7/1-5[8:1],2,1,{16}6,7,{8}8-2[16:1],4-6[16:1],
8-6[16:1],4-2[16:1],8,4,{4}5bw1[8:1],5b,
{8}7-3[8:1],,,1s5[16:3],,1<6[8:1]*>4[8:1],,1,
,7/1,5/3,{16}2/6,1/5,8b/4b,,,7b/5b,,,{8}2b/4b,
6/5,7/4,3/4,5/2,8/1,{16}7/2,6/3,{8}5v8[8:1]/4v1[8:1],6/3,
{1}5<4[2:1]/4>5[2:1],
{16}7/3,,,7/3q5[16:21],,,{8}1h[8:11],{1},{4},,{16}2/6,
,,2/6h[16:5],{48},,,,,,{24}2,3,4,{8}5,{16},,,,3,4,
2,4,,3,5,4,6,4,7,4,8h,3,5,2h,6,4,
1h[8:5],{32},,,,,,,,3,4,{8}5h[4:1],{16},,,,,,6,5,
{8}7h[8:1],{16}2,8,3,1,2,4,3,5,4,6,3,7,2,5,
1b,7,5,8b,2,4,1bw5[8:1],7,{8}5,1b<2[8:7]*>8[8:7],,,,,,,,,,,{4}5/4,
7/1,2/4,7/5,
8/1,5/2,8/1,4/7,
6/2,8/4,7/1,5/3,
8/4,6q3[4:1]/2<7[4:1],{8},,,,3,
3,5,5,4,4,6,6,
2,2,4,4,5,5,7,7,
{16}3,3,5,5,4,4,6,6,2,2,4,4,5,5,7,7,
{4}1w5[8:1],1>8[1:1],{8},,,,,,,,,,,,4b/3b,
5/2q6[8:1],,2b/8p4[8:1],,8b/1w5[8:1],,1b,
{16},,3,5,{4}1-7[8:1]*-3[8:1],1b-5[8:1],1b,
{8}2/8-4[8:1],7,8/2>5[8:1],1,2,{16}6,7,{8}8-4[8:1],2-4[8:1],
8-5[8:1],2-6[8:1],8,2,{4}1bw5[8:1],1b,
{8}7-4[8:1],2-8[8:1],7,2-5[8:1],,7-4[8:1]/2-8[8:1],,2/7V51[4:1],
,7,2,3,{4}4-1[8:1]*-7[8:1],4b,
{8}3/5,2,6/4,7,2/8,{16}3,4,{8}5-1[8:1],7,
{4}5,{32}5,4,5,4,,,,,3/8b,7,{16}6,{32},,1b/5,2,{8}3,6,
2-5[8:1],8-4[8:1],2,8<5[8:1],,8-4[8:1]/2-5[8:1],,2/8V64[16:3],
,8,3,2,{4}1-6[8:1]*-4[8:1],1b,
{8}8/2-6[8:1],3,2/8-4[8:1],7,8,{16}3,2,{8}1-3[16:1],5-7[16:1],
1v4[8:1],5v8[8:1],1,5,{4}2bw6[8:1],2b,
{8}8-4[8:1],,,2-6[8:1],,2>5[8:1]*<7[8:1],,2,
,2/8,4/6,{16}7/3,6/2,1b/5b,,,4b/8b,,,{8}6b/2b,
8/7,6/5,4/3,2/1,4/8,{16}3/7,2/6,{8}5<8[8:1]/1>4[8:1],4/8,
{1}5pp8[2:1]/1pp4[2:1],
{8}2h[8:1],{16}6,5,7,1,4,3,8,2,6,5,8,1,4,3,
7,8,6,5,8,1,5,4,1,2,4,3,6,4,8,2,
{8}7h[8:1],{16}6,7,4,5,2,3,1,8,5,6,1,8,3,4,
{8}1<6[8:1],{16}7,7,{8}1>4[8:1],{16}5,5,{8}1,{16}6,6,5,7,1,8,
{8}2h[8:1],{16}5,3,7,4,8,2,6,5,7,7,3,4,2,2,
6,4,8,8,1,5,2,2,6,3,4,4,2,5,1,1,
6b,4,8,3b,5,1,6b,4,8,3b,5,1,8b,2,4,1b,
7,5,8b,2,4,1b,7,5,6b,4,8,3b,5,1,6b,4,
8h[16:3],,,4,{8}8h[16:3],5,{16}6/8h[16:3],,,5,{8}8h[16:3],4,
{16}2/8h[16:3],,,3,{8}8h[16:3],4,2/8,{16}7,1,6,2,5,3,
6,4,7,3,,7,6,5,2,1,3,8,4,7,3,6,
2,8,4,7,3,5,1,8,4,7,3,6,2,5,1,6,
{24}8,7,8,7,8,7,8,7,8,7,8,7,8,7,8,7,8,7,,,,{8}6/1,
{16},,3,4,,7,5,6,1,8,3,5,4,6,2,7,
{8}1/8,8/1,7/2,6/3,5/4,{16}3,4,{8}5/2,{16}6,5,
{1}4>6[2:1]/7>5[2:1],
{16}5/1,,,6/2,,,{8}7/3,{16}6,4,5,2,4,3,7,5,
6,1,2,3,4/8,,,7/3,,,{8}6/2,{16}7,5,6,3,
5,4,8,5,6,2,3,4,5/1,,,8/4,,,{8}3/7,
{16}6,4,5,2,4,3,7,5,6,1,2,3,4/8,,,3/7,
,,4,6,3,5,2,8,4,6,1,7,2,6,3,5,
{4}4,{24}4,8,4,8,4,8,4,8,4,8,4,8,4,8,4,8,4,8,
{16}4,,,7/5,,,{8}2/4,,6V41[16:7]/3V58[16:7],{4},,,{32}2/8,
3,4,5,6,7,8,1,2/6,3,4,5,6,7,8,1,
{4}4-7[8:1]/2-5[8:1],4/2,
E
