&title=Crystal Gravity
&artist=Tanchiky vs. siromaru
&first=0.02
&des=Lightning
&lv_5=14
&inote_5=(178)
{1},
6-4[4:3],8V64[4:3],2-8V64[4:6],
{8}B3,,B2,,E2,,,,
{1}
3-5[4:3],1V35[4:3],7-1V35[4:6],
{8}B6,,B7,,E8,,,,
8h[4:3]/4,,E4,,B3,,B2,,
7h[4:3]/4,,E4,,B3,,B2,,
6h[4:3]/4,,E4,,B3,,B2,,
5<8[4:1],,3,4,5s1[8:1]*z1[8:1],,,,
{16}
2/8,,,2,E8,,2,,2/B7,,,2,B6,,2,,
3/8,,,3,E8,,3,,3/B7,,,3,B6,,3,,
4/8,,,4,E8,,4,,4/B7,,,4,B6,,4,,
{16}
4,5,3,6,2,7,1,8,2,1,3,8,4,7,5,6,
{8}
7b/4b,,2h[8:1]/5,6,7h[8:1]/4,3,2h[8:1]/5,6,
7h[8:1]/4,3,6h[8:1]/4,2,7h[8:1]/4-1[8:1],3,4b/
8-5[8:1],,8b,,2h[8:1]/4,5,6h[8:1]/4,3,2h[8:1]/4,5,
{16}
6,5,,,{8}7h[8:1]/4,3,3h[8:1]/5-8[8:1],7,3/5b-2[8:1],,
5b/7,,8/1,2,8/2,7/3,8/2-6[8:1],7/3,
{16}8/2,,7,7,,5,5,,6,4,5,3,7,,,,
7b^4[8:1]*^2[8:1],,,,7,,,,3b-8[8:1]*-6[8:1],,,,3b,,,,
1/5,,2,4,1,,7,5,8,2,8,2,7-3[8:1],,8/6,,
{8}
7b,,2h[8:1]/4,5,3h[8:1]/4,6,
{16}7-1[8:1],5,,5,
{8}7-3[8:1],,7/2-5[8:1],,6^3[8:1]/2,,6w2[8:1]*-2[8:1],,6b,,
8h[8:1]/4,2,7h[8:1]/4,2,6h[8:1]/4,2,
{16}
2h[8:1]/4h[8:1],,,3h[8:1]/5h[8:1],,,4h[8:1]/6h[8:1],,,5h[8:1]/7h[8:1],,,8b-5[8:1]/4b-1[8:1],,,,
4/8,,,,
2,4,,4,2,,5,,6-1[8:1],,5/7,,
6,,,,7,5,,5,7s3[16:3],,1,,,,,,
2,4,,4,3,,2/5,,6,5,,5,7,,4/8,,
{8}
7,6,5,4,3,2,1b,,
7-4[8:1]/8,6,7/1,2,2-5[8:1]/1,3,2/8,7,
6V84[4:1],6,4,3,2,2,
{16}E8,E4,B6,B2,
{8}5bx-8[8:1],,1-4[8:1],1,7-2[8:1],7,3-6[8:1],3,
8-4-6[4:1],8,4,3,2V84[4:1],2,7,6,
5,5,6/4,6/4,7/3,7/3,
{16}2,6,2,6,
{8}4,4,3/5,3/5,2/6,2/6,
{16}7,3,7,3,
8,,4h[16:1],6,,3h[16:1],5,,1,,5h[16:1],3,,6h[16:1],4,,
{8}8^3[8:1],,8^5[8:1],,8-4[8:1],,,,
Chf[4:1],,E7/B7/B6/B8/E8,,2x-4[8:1],4-8[8:1],5,5,
6-4[8:1],2,6-8[8:1],3,6,1,2h[16:1],2h[16:1],
7-1[8:1],1-5[8:1],3,3,4-2[8:1],7-5[8:1],4,7,
1b-6[8:1],2,5b-8[8:1]/1,4,1b/5,2,3hx[8:1]/6hx[8:1],,
{16}
5/4,,6,5,,5,,7,7-4[8:1]/6-1[8:1],,7/6,,,,,,
4x/5x,,3,4,,4,,2,2-5[8:1]/3-8[8:1],,2/3,,,,,,
1/6,,4,3,,2/5,,4/7,,6x,5x,,,4x/7x,,3x<1[16:9]/8x<2[16:9],,,,,,,,,,,,,,,,,
{1}
3^5[4:3],1^3^5[4:3],7^1^3^5[4:6],
{8}E6,B5,B6,,C,,,,
{1}
6^4[4:3],8^6^4[4:3],2^8^6^4[4:6],
{8}E4,,B3,,C,,,,
8h[4:1]/4>8[2:1],,,,7h[4:1],,,,
6h[4:1]/1>5[2:1],,,,7h[4:1],,,,
4h[4:1]/8<4[2:1],,,,3h[4:1],,,,
2h[4:1]/5<1[2:1],,,,3h[4:1],,,,
8/4V61[2:1],,8,,7,,7,,
6/8-3-5[2:1],,6,,7,,7,,
4/8V25[2:1],,4,,3,,3,,
2/4-7-1[2:1],,2,,3,,3,,
8h[8:1]/4,3,2h[8:1]/7,6,
5h[8:1]/1,2,3h[8:1]/6,7,
7h[8:1]/4,4,7h[8:1]/3,3,
7h[8:1]/2,2,7h[8:1]/1,1,
{16}2/8,,3,,4/6,,6,5,
7,,1,,2/4,,3,4,
1,,1,,2/8,,3/7,,4z8[8:1]/6s2[8:1],,3/7,,,,,,
3x/7x,,6,,5/2,,3,4,
5/2,,3,,4/7,,6,5,
4/7,,8,,3/8,,2,1,
3/8,,7,,6/1,,2,5,
2,6,2,6,3,5,3,5,2,6,2,6,1,7,1,7,
{16}
8,8,8,8,8,8,8,8,8,,,,
6/8-6[8:1],1,2,3,
8x/4-8[8:1],,,,4/5x,,,,
5x/1,6,7,8,1-5[8:1]/3x,,2,,
1bx/6-8[8:1],,,,6/4b,,,,
4,3,2,1,8/7-5[8:1],,6,,
7b-3[8:1],,3,,7-4[8:1],,4,4,7-2[8:1],,2,,7,,1,,
8x/1x-5[8:1],7/2,6/3,,1,,6,6,4v1[8:1]*v7[8:1],,3/5,,4b,,,,
2x-5[8:1]/6x-2[8:1],,,,2x/6x,,,,1x/4x,8,7,6,5/4x,,3,,
2b-7[16:1]/6b-3[16:1],,,2bx/6bx,,,8z4b[8:1],,
,,,,,,,,
1/3,,
{24}3,4,5,6,,,8/7,,,8/6,,,6,5,4,
{16}3,,1/2,,
3-8[8:1]/8b,,,,3b/7-3[8:1],,,,7b/1-5[8:1]*-6[8:1],,,,1b,,,,
7bx/4b-7[8:1],,3,,2b/4x,,1,,1bx-6[8:1],2,3,4,5/1-4[8:1],,3,,
1b/5-1[8:1],,6,,7/5b,,8,,8bx-4[8:1]/2,7,6,5,4/8,,6,,
1h[8:2]/5h[4:1],,,,
{32}
,2x/6x,3x/7x,4x/8x,,,,,
{16}
8bx-5[8:1]/4bxv1[8:1],,3/7,,8b/4b,,,,
7b/3b,,3,1b/4b,,6,5b/8b,,2-6[8:1],6,4,8,2b,,,,
7bx-5[8:1]/3x,,3,,7-1[8:1]/4x,4x,,2x,2x/7w3[8:1],,3x,,7,,,,
1-7[8:1]/5,,5,,1V36[8:2]/6x,6x,,4x,4x,,,,,,,,
8x/5x,,
{24}8b/5b,7/4,6/3,5/2,,,2/5,,,1/4,,,1b/4b,2/5,3/6,4/7,,,7/4,,,
{16}
8b-4[16:1],,,8/1b-5[16:1],,,1/6b-2[16:1],,,6/8bw4b[16:1],,,
{32}8b<1[2:4],B8f,C,B4/B5/B3,,,,,
{8},,,,,,,,,,,,,8^5[16:1],
