&title=Break Over
&artist=K-forest
&first=0
&des=R-oxySuki
&lv_5=14
&des_5=R-oxySuki
&inote_5=
(185){4},,,,,,,1/8w4[8:1],
{1}Cf/B1/B7/B6/B2/8>8[1:2],
,8x>8b[4:7],
{2},,3h[2:1],
2-6-4-8[4:3],
E3/B3,E2h[2:1],
6h[2:1],7-3-5-1[4:3],
E7/B6,{4}8<5[8:1]*>3[8:1],8,
{2}6h[4:1]/2h[4:1],{16}3/5,,,4/6,,,{8}5/7V13<6[8:5],
,,,,{4}1,2,
{2}3h[4:1]/7h[4:1],{16}6/4,,,5/3,,,{8}4/2V86>3[8:5],
,,,,{4}8,7,
{8}7/3,{16}6,5,{8}6,2,3/4,{16}6,5,{8}7,1,
8/2,{16}3,4,{8}3,7,6/5,{16}3,4,{8}2,7,
{16}2,8,2,8,3,1,3,1,2,4,2,4,3,5,3,5,
{2}4-8[8:1],{8}2-5[8:1]/6-1[8:1],3/7,{4}2/6,
4-2[8:1],6-4[8:1],{8}1,2,{4}3/8,
6<1[8:1],{8}3,4,{4}5>2[8:1],{8}8,7,
{4}6-3[8:1],6h[2:1],{8}B4,C,{4}B8,
{8}7/1h[8:1],4,2/8h[8:1],5,1bv4[8:1]/7bv4[8:1],5b/3b,{4}7b/1b,
5-7[8:1],3-5[8:1],{8}8,7,{4}6/1,
3>8[8:1],{8}6,5,{4}4<7[8:1],{8}1,2,
{4}3-6[8:1],3h[2:1],{8}B5,C,{4}B1,
{16}7h[16:3],,,6h[16:3],,,{8}5h[8:1],8<5[8:1],1,{4}8/2h[8:1],
3-1[8:1]/4-1[8:1],4x/3x,8-5[8:1]/7-5[8:1],7x/8x,
{16}3,4,3,4,{8}2,2,{16}6,5,6,5,{8}7,7,
{4}8-4[8:1]/3-1[8:1],3x/8x,1-5[8:1]/6-8[8:1],6x/1x,
{8}2-6[8:1],6,2,4-8[8:1],7,4,{4}1w5[8:1],
{2}1b,{16}7/8h[8:3],,,6,,,{8}5,
{16}2/1h[8:3],,,3,,,{8}4,{2}8-5[8:1]/7-3[8:1],
{16}4,6,4,6,3,5,3,5,2,6,2,6,1,7,1,7,
{4}8h[4:1],1-5[8:1],2-6[8:1],2b/8b,
1-4[8:1]/7<4[8:1],7/1-6-2[4:1],,7x-5[8:1],
7/8-4[8:1],8/1-3[8:1],{2}1,
{4}8-5[8:1]/2>5[8:1],2/8-3-7[4:1],,2x-4[8:1],
2/1-5[8:1],1/8-6[8:1],{8}8,2h[4:1],,1,
{4}3<6[8:1]/8-4[8:1],3/8-6-2[4:1],,1-3[8:1],
4/1-4[8:1],5/1-5[8:1],{2}1/6h[4:1],
{4}6>3[8:1]/1-5[8:1],6/1-3-7[4:1],,8-6[8:1],
5/8-5[8:1],4/8-4[8:1],{2}8/3h[4:1],
{8}2/5,3,4/7,6,5/1,3,4/8,B6h[8:1]/E6h[8:3]/B5h[8:5],
{32}E2,E3,{16}E4,{32},,,,E1,E8,{16}E7,{32},,,,1,2,{16}3,,,{4}6/2,
{8}7/4,6,5/2,3,4/8,6,5/1,B3h[8:1]/E4h[8:3]/B4h[8:5],
{32}E8,E7,{16}E6,{32},,,,E1,E2,{16}E3,{32},,,,8,7,{16}6,{8}2h[4:1],,8,
{16}6h[8:1]/5h[8:1],,,4h[8:1]/3h[8:1],,,{8}8/1,{16}7h[8:1]/5h[8:1],,,4h[8:1]/2h[8:1],,,{8}8/1,
{16}6h[8:1]/4h[8:1],,,5h[8:1]/3h[8:1],,,{8}4/8,{16}7h[8:1]/1h[8:1],,,8h[8:1]/2h[8:1],,,{8}5/1,
2/6,2/6,3/7,7/3,{16}4-8[8:1],8,4,8,{4}4,
{32}2bh/6bh,5/3,{16}4,{32},,,,1bh/7bh,2/6,5/3,4,,,,,8bh,7/1,2/6,3/5,{8}4,{4}2-5[8:1]/6-1[8:1],
{1}Cf/B3/B7/2V85<2[2:7]`6V41>6b[2:7],
{2},,,,,,6h[2:1],
7-3-5-1[4:3],
E7/B6,E8h[2:1],
3h[2:1],2-6-4-8[4:3],
E3/B3,{4}1>4[8:1]*<6[8:1],1,
{2}3bh[2:1]/E8f/B8,{8}8,8b/E6f/B6,,1bh[8:5]/E4f/B4,
,,,,{4}8,2b/B6/B5/E6f,
{8}7bh[2:1]/E3f/B3/B2,,,,,3b/E1,3b/C,3bh[8:5]/E5f,
,,,,,,2/6,{16}3,4,
{8}3,7,6/5,{16}3,4,{8}2,8,1/7,{16}6,5,
{8}6,2,3/4,{16}6,5,{8}7,1,8/2,7/3,
{16}4,6,4,6,5,7,5,7,8,6,8,6,1,7,1,7,
{8}2x-5[8:1],5xV74[4:1],{4}2x,{2}8-5[8:1]*-3[8:1],
{4}6/2-6[8:1],{8}6/2,4-7-1[4:1],,1-6[8:1],,5-2[8:1],
4,5/8-4[8:1],7,8/6,{4}5-2[8:1]*-8[8:1],B5f,
{8}3/7,4>1[8:1],6,4-7[8:1]/8-5[8:1],,4/8,{16},,4-8[8:1],3,
{8}2-5[8:1],4,2,1,{2}1w5[8:1],
{4}3/7-3[8:1],{8}3/7,5-2-8[4:1],,8-3[8:1],,4-7[8:1],
5,4/1-5[8:1],2,1/3,{2}4-7[8:1]*-1[8:1],
{8}8/2,5h[8:1]/6h[8:1],,7/1,7/1,3h[8:1]/4h[8:1],,8/2,
{4}7/1>4[8:1],7/1<6[8:1],1/3,{16}3,4,2,5,
{4}1-5[8:1],{8}1/5,7-3-5[4:1],,5<8[8:1],,2-6[8:1],
1,2/8-5[8:1],1,8/3,{4}2-4[8:1]*-7[8:1],B2f/E3,
{8}6/5,7<4[8:1],4,7-1[8:1]/2-6[8:1],,2/7,{16},,8v5[8:1],7,
{8}6>3[8:1],8,6,2,{4}2h[2:1],{16}8,7,6,5,
{4}4-7[8:1],{8}4/1,2-6-4[4:1],,4>1[8:1],,7-3[8:1],
8,7/1-4[8:1],8,1/6,{4}7,{8}8/1,{16}7,8,
{8}1h[4:1]/6h[4:1],{16},,,,2,1,{8}3h[4:1]/8h[4:1],{16},,,,5,4,
{8}3/6,{16}2,6,{8}2,{16}8,4,{4}8h[16:5],{32}E6,B5,B4,E4,,,,,{4}7x-5-1[4:1],
{8}2,1,8-4-2[4:1],8,7,6,
{4}5-8[8:1],{8}3/5-2[8:1],4,7/5-1[8:1],6,{4}5/3,
2x-4-8[4:1],{8}7,8,1-5-7[4:1],1,2,3,
{4}4-1[8:1],{8}6/4-7[8:1],5,2/4-8[8:1],3,{4}4/6,
7-1-6[4:1],{8}5,4,3V57[16:3],5,3,1,
{4}1-6[8:1],{8}3/1-4[8:1],2,7/1-5[8:1],8,{4}3/1,
{8}4/6,1h[8:1]/2h[8:1],,3/5,3/5,7h[8:1]/8h[8:1],,4/6,
{4}3/5<8[8:1],3/5>2[8:1],{2}5/1-6[8:1]*-4[8:1],
{8}3/7,{16}2,1,{8}4h[8:1],{16}5,3,{8}6h[8:1],{16}8,7,{8}2h[8:1],{16}1,3,
{8}8h[8:1],{16}5,6,{8}3h[8:1],{16}4,2,{8}5-8[8:1]/1-4[8:1],2/6,{4}5/1,
{8}6/2,{16}7,8,{8}5h[8:1],{16}4,6,{8}3h[8:1],{16}1,2,{8}7h[8:1],{16}8,6,
{8}1h[8:1],{16}4,3,{8}6h[8:1],{16}5,7,{8}4-1[8:1]/8-5[8:1],7/3,{4}4/8,
{8}2-6[8:1],2,1-4[8:1],1,8-5[8:1],8,7-3[8:1],7,
6-2[8:1],6,5-8[8:1],5,4,4,7/3,{16}2,1,
{8}8h[4:1]/3h[4:1],{16},,,,7,8,{8}6h[4:1]/1h[4:1],{16},,,,1,5,
1,5,2,6,3,7,4,8,3x/7x,2x/6x,5x/1x,4x/8x,{8}3xv6[8:1]/7x-2[8:1],1/5,
{64}3b/7b,Cf,
E
