&title=FFT
&artist=cybermiso
&first=0.5999997
&lv_5=14+
&des_5=Lu0
&inote_5=
(90){4}8-4[8:5],,{2}3h[8:3],
1-5[8:5],6h[8:3],
7>5[8:5],6h[8:3],
{4}8-4[8:1],{8}3>5[8:3],3h[2:1],{16},,,,,,,,4h[8:1],
,,4h[8:1]/5h[8:1],,,{8}4h[8:1]/6h[8:1],{16},4h[8:1]/7h[8:1],,,{8}2/8-4[8:1],6/4-6-8-2-4[8:5],
{16}8/2h[8:1],,,3h[8:1],,,{8}4h[8:1],{16},5h[8:1],,,{8}5>2[8:1],2/8<5[8:1],
5,8,1>4[12:1],4-8[12:1]*<4[4:1],{4}1,C,
{2}5xh[8:3]/1h[4:3],{48}4,3,2,8,7,6,5w1[16:1],4,3,2,8,7,{4}6,
{8}7h[8:1],{32}1b,,,2,{16}3,4/6,2/5w1[16:1],7/3,,,,,3x/7-4-1[8:1],6/2,{8}5/1-5-8[8:1],
{16}7/3,{32}1,2,{16}3,3h[8:1],,,7/3w7[16:1],1/5,{64}D1,A1,D2,A2,{16}D3,,,{8}1h[16:1]/5h[16:1],3/7,
{16}2/5-7-3b[8:1],{32}3,4,{16}3-8b[16:1],3,{8}5/2-5[16:1],4w8[16:1],,4x,{16}6/2,3,7-1[16:1]/4-8[16:1],6,
{8}5/2,4>1[16:1]/7<4[16:1],5/2,4/7-3[16:1],8-4[16:1],7/4>3-1[16:1]*<5-7[16:1],{4}5/8,
{16}6bx/2bx,3,4/7,{32}6,5,,3,{16}4,2/5w1[16:1],7/3,{64},,,,,,,,,,,,,,,,4-8[16:1],3,2,1,8,7,6,5,{8}4<3[16:3],
{16}4,{32}5,5,{8}4,{16},5,6w2[16:1],7,{48}8/4>6[8:1],7/3,6/2,5/1,,,,,,,,,{8}4/8,5-1[16:1],
7/3,2/5<8[16:1],7/3-7[16:1],5/1-5[16:1],3>5[8:1],1,3,4,
{32}2,5,3,6,4,7,5,8,4,7,3,6,2,5,1,4,{8}8,2v5[16:1]/6v1[16:1],{64}2,1,8,7,6,5,4,3,,,,,,,,,{16}8<5[16:1],
8,3,8p4[16:1],,2,2,8v3[16:1],,1,1,8,,2h[8:1],{8}4h[16:1],
{16}1>4[16:1],1,6,1q5[16:1],,7,7,1v6[16:1],,8,8,1,,7h[16:1],{8}5,
{16}4/8<5[16:1],7,7,{48}8/1,2,3,{8}4>1[16:1],{16}7,{48}4/8-4[16:1],7,6,{8}5,{16}7,8/1,,3h[16:1],{8}4,
{16}3v8[16:1],4,5,6,B7f,,,8V64[8:1]/7V53[8:1],,4V28[8:1]/3V17[8:1],,7/8,,,,,1xh[16:1],
6xh[16:1],2xh[16:1],7xh[16:1],3xh[16:1],8xh[16:1],{8}4x,{16}7h[16:1],3h[16:1],6h[16:1],2h[16:1],5h[16:1],1h[16:1],{8}4,
{16}7/3,4,5>2[16:1],6,{8}7,{48}8-4[12:1],7,6,5,,,,,,{16}1-5[12:1],2,3,8,7,{8}6,
7-2[16:1]/3-6[16:1],6V42[8:1]/2V86[8:1],{16},,,,,,1,7,5h[4:1],3,,,1-5[16:3],
2,3,4,5,6,7,8,{8}1h[8:1],5,{64}1-5[16:1]*-5[16:1],2,3,4,5,6,7,8,1,2,3,4,5q8<6b[16:25],6,7,8,
{1}1bq4>2[2:3],
{2},,8/1h[8:7],
7h[8:7],
5h[8:7],4h[8:3],
{16}3h[8:1]/4h[8:1],,,4h[8:1]/3h[8:1],,,{8}3h[8:1]/4h[8:1],{16},4h[8:1]/3h[8:1],,,{8}3/4,4/5,
{16}5h[16:1]/6h[8:1],,,6h[16:1]/5h[8:1],,,{8}5h[16:1]/6h[8:1],{16},6h[16:1]/5h[8:1],,,{8}4/7,{64}1,2,3,4,8,7,6,5,
{16}1,1,2/6,2,3/7,3,4/8,4,5/1,5/1,8/4,4/8,3/7,3/7,6/2,2/6,
{32}1,8,2,7,3,6,4,5,3,6,2,7,1,8,2/7,6/3,{2}5s1[8:1]/4z8b[8:1],
{16}2bv5[16:1],8,5V31[16:1],4,2,8,{48},,,8b,7,6,{16}5-1[16:1],{48}1w5[16:1],2/6,3/7,{8}4/8,{16},,,,7bv4[16:1],
1,4V68[16:1],5,7,1,{48},,,1b,2,3,{16}4q5[8:1],6,7,8,1,2,{8}3,
3/5V71[8:1]*V31[8:1],7/1-6[16:1]*-4[16:1],{32},,,,,,,,1x,8,7,6,2,1,8,7,3,2,1,8,4,3,2,1,
{2}8qq5b[4:1]/4>1[8:1],{8}1-5[16:1],5-2[16:1],{16}1,8,7w3[16:1],6,
{8}1/5,7<4[16:1]*>2[16:1],B1/B5/Ch[16:1],7-3[0.6667##0.1667],{16}E6h[16:1]/E1h[16:1],,{32}7,,,1,5,6,7,8,4-8[16:1],3,2,1,
8,7,6/2,5/3,4bw8[16:1],,,7/1,6/2,5/3,{16}4,{32}C,,,6,,1,8,7,6-2[16:1],7/5,8/4,1/3,{8}2h[16:1],6b,
{64}D2f,D1,D8,D7,D6,D5,D4,D3,{32}1xh[4:1],,,8,,,{16}7V51[8:1],5,3-7[16:1],,7>2[16:1]*<4[16:1],,3,,,,,2/4,
1,7/5,8-6[16:1],4,2-4[16:1],5,8/1-5[16:1],,2/5w1[16:1],,1,{64},,,,,,,,,,,,,,,,1,
2,3,4,5,6,7,8,{8}5/1b,{16}7/3,{32}6,5,{16}8,{32}3,4,{16}1-5[16:1],3/7,6-8[16:1]/4-2[16:1],1,{64},,,,,,,,,,,,,,,,1x,
2x/8x,7x/3x,4x/6x,{16}5x,{8}7b/2b,{64}8x,7x/1x,2x/6x,5x/3x,{16}4x,{8}2b/7b,{16}4/5,2<7[16:1],7<4[16:1],4>2[32:1],,2b,{64},,,,,,,,1,
8,7,6,{16}5,{8}4/2b,4/6-2[16:1],8-3[16:1]*-5[16:1],6/4<3[8:1],8,,Cf,
{16}7/4,6,5/2,3,4/7,6/5,4/5,3/4-8[16:1],,6V83[8:1]/2-5[16:1],,4/8,,2/6,,,4b,
3h[8:1]/5>2[16:1],{32}6,7,{16}8h[8:1],{32},,,7,6,5,{16}4-6<8-2[8:1],{32},,4,5,{16}3w7[16:1],4x/2x,,,{8}A3f,
{16}5,6h[8:1]/4<7[16:1],{32}3,2,{16}1h[8:1],{32},,,2,3,4,{16}5-3>1-7[8:1],{32},,4,4,{16}6w2[16:1],5x/7x,,,{8}A6f,
{16}8x-4[16:1],7/1,{32}4,3,{16}2/8V25[8:1],,1,{32}5>8[8:1],6,{16}7,{32},,E1,E8,E7,E6,{16}E5,,2bx/6bx,{48},,,,,,3,
7,3,7,3,7,2,6,2,6-1b[16:1],2v5[16:1],6,1,8,7,6,5,4,{16}3/7,6b/2b,
E
