&title=翠杜
&artist=Aoi vs 庭师
&first=0
&des=哈哈
&lv_5=14+
&des_5=哈哈
&inote_5=
(180){4},{24},,,,,,,,,,,,,,,4x,3x,2x,
{8}1xh[4:3],{24},,,,,,E5,E6,E7,{2}E8,
8xh[4:3],{4}E3,E2,
{8}2xh[4:3],,,E1,,,{4}E7/B6/B7,
{8}7xh[4:3],,,B3/E4/B4,,,,3,
3xh[4:3],{24},,,,,,E8,E7,E6,{2}E5,
6xh[4:3],{4}E3,E4,
{12}3,4,2,6,5,7,3,4,1,6,5,8,
{1}2bw6[2:1],
{16}1/8,2,3,4,8,7,6,5,1,2,3,4,5x/8x,4,3,2,
1x/6x,2,3,4,5x/8x,4,3,2,1x/6x,2,3,4,5x/8x,4,3,2,
5x/1x,6,7,8,4,3,2,1,5,6,7,8,1x/4x,8,7,6,
5x/2x,6,7,8,1x/4x,8,7,6,5x/2x,6,7,8,1x/4x,8,7,6,
2x/5x,1,8,7,6,5,4,3,2/7,8,1,2,3,4,5,6,
7/1x-5[8:1],2x,3x,4x,{8}5x,{16}8x-4[8:1],1x,2x,3x,{8}4x,{16}1x,2x,3x,4x,
7x,4,7,4,6,3,6,3,5,2,5,2,{32}5x,4x,3x,2x,1x,8x,7x,6x,
{8}5bx/Cf,,,5x,1x-5[8:1],5-1[8:1],1>7[2:1],A5,
,,7x>5[2:1],B7,,,5x<3[2:1],B5,
,,3x<1[2:1],B3,,,1x>7[2:1],B1,
,,7x>5[2:1],B7,,,5x<2[8:3],B5,
,5x,6,7,{16}4,8,3,7,2,6,1,5,
{4}8-4[8:1],{8}8/6,5-1[8:1],,5/3,{4}2-6[8:1],
{8}7x/2-4[8:1],7-5[8:1],2-5[8:1],7-4[8:1],2-6[8:1],7-3[8:1],2,7,
{4}4-8[8:1],{8}4/6,6-2[8:1],,6/3,{4}1-5[8:1],
{8}7/1,8<6[8:1],4,8-2[8:1],3,8p5[2:1],5,8,
{16},,,,,,,,3b-6[16:1]/7b-2[16:1],,,7b/3b,,,1bx/5bx,4bx/8bx,
{4}3bx/7bx<4[4:1],{8}4x>6[2:1],B4,,,6x>8[2:1],B6,
,,8x<2[2:1],B8,,,2x<4[2:1],B2,
,3,2,1,{32}8x,7x,6x,5x,4x,3x,2x,1x,{12}6x,6x,6x,
{8}1x,8-6[8:1],1,8/2-4[8:1],,2,8,1>3[8:1],
8,1/7<5[8:1],,7,3,3,2,1b>8[4:5]/3b<8[4:5],
{1},{4},,{16}5x,
6,5,6,4,7,3,8,
{4}1xq6[8:1]/2x>5[8:1],2/1,{8}7,8<5[8:1],{32},,,,8/4,3,{16}2h[16:3],
,,,,{8}3/6,7/4>8[8:3],,4,{16}8,7,6,5,
{2}4h[2:1],{8}7>3[4:1],{16},,,,5,6,
{2}7h[4:1],{8}8/3,2,1/6,7,
{4}1-6b[8:1]*-5[8:1],1b,{8}4x,5bx/3bx,4,2bx/6bx,
,5/4,6b,5/4,2b,5/4,7b,5/4,
Cf/B5/E5/B4/1b<1b[4:3],{16},,,,,,,,,,,,7,6,
{2}5-3[8:1],2-5[8:1],
{48}6/B3,E3,,,,,,,{6}5,4,{48}3/B6,E7,,,,,,,{6}4,5,
{48}6/B4,E5,,,,,,,{6}7,8,{48}1/B3,B4,,,,,,,,,,,,,,,{12}5,4,
{48}6/E3,B3,,,,,,,{6}7,8,{48}1/E7,B6,,,,,,,{6}2,3,
E2,E8,E3,E7,E4,E6,
{4}6b/3b,{8}2/5,{16}3,4,{8}3,5/2,{16}4,3,{8}4,
2/5,{16}3,4,{8}3,2/5,{16}4,3,{8}4,5/2-5b[8:1],4x/3x,
2x/5,6,4/7,{16}6,5,{8}7,7/4,{16}5,6,{8}4,
7/4,{16}7,5,{8}6,7/4,{16}4,6,{8}5,8x-5[8:1]/4x-1[8:1],6x/2x,
{4}8b/4b,{8}3x/7x,{16}5,6,{8}4,3x/7x,{16}1,2,{8}8,
3x/7x,{16}5,6,{8}4,7x/3x,{16}1,2,{8}8,7xv5[8:1]/3xv5[8:1],6/4,
{4}3/7,{8}2/6,{16}4,3,{8}5,{16}6,7,8,1,2,3,
{4}5xh[32:1],5xh[32:1],4h[32:1]/3h[32:1],4h[32:1]/3h[32:1],
{16}2xh,5xh,3xh,4xh,2xh,5xh,3xh,4xh,{4}2xh,{16}4,3,6,5,
7xh,4xh,6xh,5xh,7xh,4xh,6xh,5xh,{8}7xh,B4,B3,E3,
E1,E8,E7,E6,{4}E5,{8}E2,E3,
E4,{16},,,,E3,E4,E5,E6,E7,E8,E1,E2,E3,E4,
6xh,5xh,7xh,4xh,8xh,3xh,1xh,2xh,{2}1x-6[8:1],
{16}8xh,7xh,1xh,6xh,2xh,5xh,3xh,4xh,{8}3xh,B4,B5,E6,
{16}E3,E2,E1,E8,E7,E6,E5,E4,{2}E3/Ch[4:1],
{8}8b/1b,7-1[8:1],6,5,4q8[8:1],3,{4}2v5[8:1],
2/1p5[8:1],{8}1,3,{4}3h[8:3],7v4[8:1],
7/8q4[8:1],{8}8,6,{4}6h[4:1],3-8b[8:1],
{8}3b/5h[4:1],{16},,,,5x/1,6x/2,{4}3/7xp3[8:1],{8}7,2,
1-3[8:1],1-7[8:1],{4}1x-5[8:1],{8},,,1x/5x,
{16}1,2,3,4,5,6,7,8,1,2,3,4,5,6,7,8,
1/6,5,4,3,2,1,8,7,6,5,4,3,2,1,8,7,
{32}6/1,2,3,4,5,6,7,8,1,2,3,4,5,6,7,8,1,2,3,4,5,6,7,8,1,2,3,4,5,6,7,8,
{4}1bw5[4:1],{8},,,,7/4,7h[8:1],
{16}5,6,7,8,1/5,2,3/7h[8:1],4,5,6,7,8,1/5,2,3/7h[8:1],4,
5,6,7,8,1/5,2,3/7h[8:1],4,5,6,7,8,1/5,2,3/8h[8:1],4,
5,6,7,8,1/5,2,3/8h[8:1],4,5,6,7x,8x,{4}1/6h[2:1],
{8},8-2-5[4:1],,5V31[4:1],,6,7,8h[8:3],
,1-7-4[4:1],,4V68[4:1],,3,2,2-5[8:1]*-7[8:1],
,2<3[8:3],,Cf,,8x,7,6h[4:1],
{16},,8-4[8:1],1,2,3,{8}4,{16}7,8,1-5[8:1],2,{8}3,1qq3[8:3],
,1x,,A5,D6,A6,7x/4x,7xh[8:1],
{16}5,6,7,8,1/5,2,3/7h[8:1],4,5,6,7,8,1/5,2,3/7h[8:1],4,
5,6,7,8,1/5,2,3/8h[8:1],4,5,6,7,8,5/1,2,3/7h[8:1],4,
5,6,7,8,1/5,2,3/8h[8:1],4,5,6,7/5x,8,{32}1xh[4:3],2x,3x,4x,5x,6x,7x,8x,
,2x,3x,4x,5x,6x,7x,8x,,2x,3x,4x,5x,6x,7x,8x,,2x,3x,4x,{16}E7,E6,E5,E4,E3,E2,
{4}1x<5[8:1],{16}4,3,2,1,{8}8-4[8:1],6-2[8:1],8,6,
,3-8[8:1]*-1[8:1],4,3-5[8:1]*-6[8:1],,3x,,7,
{16}7h[8:1]/5h[8:1],,,6h[8:1]/4h[8:1],,,{8}3/5,{16}2h[8:1]/5h[8:1],,,3h[8:1]/6h[8:1],,,{8}7/4,
{16}7h[8:1]/3h[8:1],,,6h[8:1]/2h[8:1],,,{8}1/5,{48}2x/6x,7x/3x,{24}4xh[24:5]/8xh[24:5],{4},{16},,{24},{16}8/4,
1,2,3,{32}4/8x,1x,5/2x,3x,{16}6/4xh[8:1],7,8,1,2,3,{32}4/8x,1x,5/2x,3x,{16}6/4xh[8:1],7,
8,1,2,3,{32}4/8x,1x,5/2x,3x,{16}6/4xh[8:1],7,8,1,2,3,{32}4/8x,1x,5/2x,3x,{16}6/4xh[8:1],7,
8,1,2,3,{32}4/8x,1x,5/2x,3x,{16}6/4xh[8:1],7,8,1,2x,3x,{4}4h[2:1]/8h[2:1],
{16},,,,,,7,6,5,4,3/7,2/6,{4}1h[8:1]/5h[8:1],
{8}7b/8b,{16}1V75[16:3],2,{8}3,1x,,2-6[8:1],4,2x,
,7-3[8:1],5,7x,,4/2,5/7,8/3,
2b/1b,{16}8V24[8:1],7,{8}6,8,,7-4[8:1],5,7,
{16},,2,5,3,6,4,7,{8}5bh[8:3],{16},,,,7,8,
1,2,3,4,{32}5/1x,2x,6/3x,4x,{16}7/5xh[8:1],8,1,2,3,4,{32}5/1x,2x,6/3x,4x,{16}7/5xh[8:1],8,
1,2,3,4,{32}5/1x,2x,6/3x,4x,{16}7/5xh[8:1],8,1,2,3,4,{32}5/1x,2x,6/3x,4x,{16}7/5xh[32:3],8,
1,2,3,4,{32}5/1x,2x,6/3x,4x,{16}7/5xh[8:1],8,1,2,3,4,{32}5x/1x,2x/6x,3x/7x,4x/8x,5x/1xh[1:1],6x,7x,8x,
,2x,3x,4x,5x,6x,7x,8x,,2x,3x,4x,5x,6x,7x,8x,,2x,3x,4x,{8}5xh[4:1],,,7b/3,
3,2b/6,6,5b/1,1,8b/4,4,
7/3,3/7,3/7,7/3,{32}7/3,8x/4x,5x/1x,2x/6x,7x/3x,8x/4x,5x/1x,6x/2x,{4}3bx/7bx,
3b/7b,{8}4/8,{16}4x/8x,3x/7x,{8}2x/6x,7/3,{16}7x/3x,6x/2x,{8}5x/1x,
6/2,{16}6x/2x,1x/5x,{8}8x/4x,5/1,{16}5x/1x,4x/8x,{8}3x/7x,8/4,5/1,
6/2,7/3,4/8,{16}8/4,3/7,{8}2/6,7/3,{16}7/3,6/2,{8}5/1,
6/2,{16}6/2,1/5,{8}8/4,5/1,{16}5/1,4/8,{8}3/7,{16}7b/3b,8/4,1/5,2/6,
{4}3b/7b,{16}1b,8/2,3/7,6/4,{8}5b,{16}8b,1/7,2/6,3/5,{8}4b,
{16}2b,1/3,4/8,5/7,{8}6b,{16}7b,8/6,5/1,4/2,{8}3b,1b/5,3b/7,
5b/1,7b/3,{16}8b/4b,7/3,2/6,1/5,{8}8b/4b,{16}8b/4b,1/5,2/6,3/7,{8}4b/8b,
{16}3,7,1,5,2<2[2:1],6,4,8,E3,E4,E5,E6,E7,E8,E1,E2,
E
