&title=autumn road
&artist=ばんばんしー
&first=0.05
&des=秋満开の风に舞う
&lv_5=13
&des_5=
&inote_5=(113)
{16},,,,
,,,,
,,,,
,,,,
{16}3h[4:3]/4h[2:1],,,,
,,,,
,,,,
,,,,
{16}6h[4:3]/5h[2:1],,,,
,,,,
,,,,
,,,,
(108)
{16}3h[#1.742612]/7h[#1.133334],,,,
,,
(100)
{16},,,,
(97)
{16},,
(94)
{16},,,,
(91)
{16}8<1[0.6593##1.3665]*<1[0.6593##1.3665],,,,
,,
(86.8)
{16}4h[8:3],,,,
,,,,
,,
(134)
{16}1,,,,
1,,,8,
1,,3,,
4,,5,,
{16}7-4[8:1],,,,
1/7,,,,
2-5[8:1],,1-6[8:1],,
2,,1,,
{16}2,,1-5[8:1],,
8,,7h[4:1],,
,,3,,
2,,1,,
{16}7-4[8:1],,,,
1/7,,,,
2-5[8:1],,1-6[8:1],,
2,,1,,
{16}3b>8[8:1],,8<5[8:1],,
7,,6b,,
,,6,,
5,,4,,
{16}2b-5[8:1],,,,
8/2,,,,
7-4[8:1],,8-3[8:1],,
7,,8,,
{16}7,,8-4[8:1],,
1,,2h[4:1],,
,,6,,
7,,8,,
{16}2-5[8:1],,,,
8/2,,,,
7-4[8:1],,8-3[8:1],,
7,,8,,
{16}6,,7/8,,
2,,4/3V51[4:1],,
,,5,,
6,,7,,
{16}2b-5[8:1],,,,
2/1,,,,
7-3[8:1],,8-4[8:1],,
7,,8,,
{16}2,,1-5[8:1],,
8,,7h[4:1],,
,,5,,
4,,3,,
{16}2-5[8:1],,,,
2/1,,,,
7-3[8:1],,8-4[8:1],,
7,,8,,
{16}6b<1[8:1],,1>4[8:1],,
2,,3,,
,,3,,
4,,5,,
{16}7b-4[8:1],,,,
7/8,,,,
2-6[8:1],,1-5[8:1],,
2,,1,,
{16}7,,8-4[8:1],,
1,,2h[4:1],,
,,4,,
5,,6,,
{16}7-4[8:1],,,,
7/8,,,,
2-6[8:1],,1-5[8:1],,
2,,1,,
{16}4,,2/1,,
8/7,,5/6qq7[4:1],,
,,,,
,,,,
{16}6,,5,,
4qq3[4:1],,3,,
,,,,
7,,,,
{16}6,,5,,
4qq3[4:1],,3,,
,,,,
7,,,,
{16}6,,5,,
4qq3[4:1],,3,,
,,,,
8,,,,
{32}8,1,,,,,,,
{16}2,,3,,
4,,5,,
6,,7,,
{16}3,,4,,
5pp6[4:1],,6,,
,,,,
2,,,,
{16}3,,4,,
5pp6[4:1],,6,,
,,,,
2,,,,
{16}3,,4qq4[8:3],,
5,,6,,
,,,,
8h[4:1],,,,
{16}6,,5pp5[8:3],,
4,,3,,
,,,,
1h[4:1],,,,
{32}4,5,6,,,,,,
{16}1h,,,,
2h,,,,
3h,,,,
{16}4-2[8:1]/8-4[8:1],,,,
8/4,,,,
5-7[8:1],,1-5[8:1],,
5,,1,,
{16}7,,8-4[8:1],,
1,,2qq3[4:1],,
,,5,,
6,,7,,
{16}4-2[8:1]/8-4[8:1],,,,
8/4,,,,
5-7[8:1],,1-5[8:1],,
5,,1,,
{16}3b>8[8:1],,8<5[8:1],,
7,,6b,,
,,5,,
4,,3,,
{16}5b-7[8:1]/1b-5[8:1],,,,
1/5,,,,
4-2[8:1],,8-4[8:1],,
4,,8,,
{16}2,,1-5[8:1],,
8,,7pp6[4:1],,
,,4,,
3,,2,,
{16}5-7[8:1]/1-5[8:1],,,,
1/5,,,,
4-2[8:1],,8-4[8:1],,
4,,8,,
{16}3,,2/1,,
7,,6/5V31[4:1],,
,,6,,
7,,8,,
{16}2b-5[8:1]/6b-1[8:1],,,,
2/6,,,,
5/3-8[8:1],,1/7-4[8:1],,
3/5,,7,,
{16}2,,1-5[8:1],,
8,,7pp6[4:1],,
,,5,,
4,,3,,
{16}2-5[8:1]/6-1[8:1],,,,
2/6,,,,
5/3-8[8:1],,1/7-4[8:1],,
3/5,,7,,
{16}3b>8[8:1],,8<5[8:1],,
7,,6,,
,,6,,
5,,4,,
{16}7b-4[8:1]/3b-8[8:1],,,,
7/3,,,,
4/6-1[8:1],,8/2-5[8:1],,
6/4,,2,,
{16}7,,8-4[8:1],,
1,,2qq3[4:1],,
,,4,,
5,,6,,
{16}7-4[8:1]/3-8[8:1],,,,
7/3,,,,
4/6-1[8:1],,8/2-5[8:1],,
6/4,,2,,
{16}4,,2/1,,
8/7,,5/6pp5[4:1],,
,,,,
,,,,
{16}1b/5b,,5/1-5[8:1],6/2,
7/3,,,,
1,,5/1-5[8:1],6/2,
7/3,,,,
{16}1-3[8:1],,5-7[8:1],,
1,,5,,
1,,3,4,
3h[8:1],,4,,
{16}1/5,,5/1-5[8:1],6/2,
7/3,,,,
1,,5/1-5[8:1],6/2,
7/3,,,,
{16}1-3[8:1],,5-7[8:1],,
1,,5,,
8-6[8:1],,4-2[8:1],,
8,,4,,
{16}5b,,5/1-5[8:1],6/2,
7/3h[8:1],,1,,
4,,5/1-5[8:1],6/2,
7/3h[8:1],,1,,
{16}4-2[8:1],,8-6[8:1],,
4,,8,,
3,,3,4,
3h[8:1],,4,,
{16}1/5,,5/1-5[8:1],6/2,
7/3h[8:1],,1,,
4,,5/1-5[8:1],6/2,
7/3h[8:1],,1,,
{16}3,,3/4,,
5/6,,8/7,,
1/2,,4/5,,
8/7,,5/4,,
{16}8b/1b,,2b-5[8:1]/7b-4[8:1],,
,,7b<1[4:1]/2b>8[4:1],,
,,,,
,,,,
{16}2b>5[8:1]/5b<8[8:1],,,,
2/5,,,,
5/4>1[8:1],,8/7<4[8:1],,
4,,7,,
{16}2,,1-5[8:1],,
8,,7,,
6,,8/1,,
2/4,,8/1,,
{16}7<4[8:1]/4>1[8:1],,,,
4/7,,,,
4/5<8[8:1],,1/2>5[8:1],,
5,,2,,
{16}7b>2[8:1]*q5[4:1],,2>5[8:1],,
7,,,,
,,3,,
1/2,,8,,
{16}7b<4[8:1]/4b>1[8:1],,,,
4/7,,,,
4/5<8[8:1],,1/2>5[8:1],,
5,,2,,
{16}7,,8-4[8:1],,
1,,2,,
3,,1/8,,
7/5,,1/8,,
{16}2>5[8:1]/5<8[8:1],,,,
5/2,,,,
5/4>1[8:1],,8/7<4[8:1],,
4,,7,,
{16}2,,1/8,,
7,,5/6q8[4:1],,
,,5,,
4,,3,,
{16}2b>5[8:1]/5b<8[8:1],,,,
5/2,,,,
2/8<5[8:1],,3/5>2[8:1],,
8/1,,3,,
{16}1,,8-4[8:1],,
7,,6,,
5,,7/8,,
5/4,,2/1,,
{16}7<4[8:1]/4>1[8:1],,,,
4/7,,,,
7/1>4[8:1],,6/4<7[8:1],,
1/8,,6,,
{16}8b>3[8:1]*q6[4:1],,3<6[8:1],,
8,,,,
,,3,,
2,,1,,
{16}7b<4[8:1]/4b>1[8:1],,,,
4/7,,,,
7/1>4[8:1],,6/4<7[8:1],,
8/1,,6,,
{16}8,,1-5[8:1],,
2,,3,,
4,,2/1,,
4/5,,7/8,,
{16}2>5[8:1]/5<8[8:1],,,,
5/2,,,,
2/8<5[8:1],,3/5>2[8:1],,
1/8,,3,,
{16}1,,7/8-4[8:1],,
6,,5qq6[4:1],,
,,,,
,,,,
{16}4b/3b-8[8:1],,2,,
3/4-7[8:1],,5,,
4-1[8:1],,2,,
4-8[8:1],,6,,
{16}4/1-3[8:1],,5,,
1/4-1[8:1],,7,,
4/8-4[8:1],,5,,
8,,7,,
{16}5b/6b-1[8:1],,7,,
6/5-2[8:1],,4,,
5-8[8:1],,7,,
5,,3,,
{16}6b<1[8:1],,1>4[8:1],,
2,,3b,,
,,5/2,,
3,4,3,4,
{16}3b-7[8:1],,2,,
3/4-8[8:1],,5,,
4-2[8:1],,2,,
4-8[8:1],,6,,
{16}4/1-3[8:1],,5,,
1/4-1[8:1],,7,,
4/8-4[8:1],,5,,
8,,7,,
{16}5b/6b-2[8:1],,7,,
6/5-1[8:1],,4,,
5-7[8:1],,7,,
5,,3,,
(113)
{16}1b>8[0.531##1.6667]*>8[0.531##1.6667],,,,
(90)
{16},,5b,,
