&title=Dreamland
&artist=Kyrrin / z1on
&first=0.03
&des=udo
&des_5=
&lv_5=13
&inote_1=
&inote_5=(120){4},,,,,,,,4<8[8:29],
{64}B1,B2,{4},{16},,,{32},{64}B1,B2,{4},{16},,,{32},{64}B1,
B2,{4},{16},,,{32},{64}B1,B2,{4},{16},,,{32},{64}B1,
B2,{4},{16},,,{32},{64}B1,B2,{4},{16},,,{32},{64}B1,
B2,{4},{16},,,{32},{64}B1,B2,,,,,,,,,,,,,,,{4}5>1[8:29],
{64}B8,B7,{4},{16},,,{32},{64}B8,B7,{4},{16},,,{32},{64}B8,
B7,{4},{16},,,{32},{64}B8,B7,{4},{16},,,{32},{64}B8,
B7,{4},{16},,,{32},{64}B8,B7,{4},{16},,,{32},{64}B8,
B7,{4},{16},,,{32},{64}B8,B7,,,,,,,,,,,,,,,{4}5,
{64}B1,B2,,,,,,,{8}5,,5,{64}B4,B3,{4},{16},{32},{8}5,
{64}B1,B2,,,,,,,{8}5,,5,{64}B4,B3,,,,,,,{8}5h[16:1],
{4}5,{64}B1,B2,,,,,,,{8}5,,5,{64}B4,B3,{4},{16},{32},{8}5,
{64}B1,B2,,,,,,,{8}5,{16}5,,,6,{64}B4,B3,,,,,,,{8}7,
{64},,,,,,,,,,,,,,,,B8,B7,,,,,,,{8}4,,4,{64}B5,B6,{4},{16},{32},{8}4,
{64}B8,B7,,,,,,,{8}4,,4,{64}B5,B6,,,,,,,{8}4h[16:1],
{4}4,{64}B8,B7,,,,,,,{8}4,,4,{64}B5,B6,{4},{16},{32},{8}4,
{64}B8,B7,,,,,,,{8}4,{16}4,,,3,,,{8}2,
{1}1w5[1:1],
{16},,,,,,,,6,,,7,,,{8}8,
{1}8w4[1:1],
{16},,,,,,,,3,,,2,,,{8}1,
{4}5/1>4[2:1],5,5,5,
5,5,{16}5/3,,,2,{8}5,1,
5,5,2,2,6,6,7<4[2##0.25]/1>4[2##0.25],1bh[8:5]/7bh[8:5],
,,,,,,{4}7/1,
{8}7-5[8:1]/1>4[8:1],2,{4}7/1,{16}2/7,,,7,1,8,{8}2,
2-4[8:1]/8<5[8:1],7,{4}2/8,{16}2/7,,,7,1,1,8,8,
{8}7-5[8:1]/1>4[8:1],2,{4}7/1,{16}7/2,,,6,{8}1>4[8:1],6,
5/1<6[8:1],5,{4}1/6,{8}3>7[8:1]/5<1[8:1],4,,,7-5[8:1]/1>4[8:1],
2,{4}7b/1b,{16}5/2q1[8:1],,,5,{4}2,
{8}2-4[8:1]/8<5[8:1],7,{4}2b/8b,{16}7/4p8[8:1],,,7,{8}4,7,
7-5[8:1]/1>4[8:1],2,{4}1b/7b,{16}2/5,,,2,{8}5,6,
2>5[8:1],7,8h[16:1],8h[16:1],7<4[8:1],4-8[8:1],,,{4}3-5[8:1],
7/3,6-4[8:1],6/2,
{8}2,1-6v4[8:3],8,8h[8:3],,,,,7,
8-3v5[8:3],1,1h[8:3],,,,,{2}1/4<7[8:1],
7/4>1[8:1],
{4}6-4[8:1],2/6,3-5[8:1],3/7,
{8}7,8-3v5[8:3],1,1h[8:3],,,,,2,
1-6v4[8:3],8,8h[8:3],,,,,{2}8/5>2[8:1],
2/5<8[8:1],
{8},3,5/3>7[4:1],6,{2}7v5[4:1],
{8},8,1/7p5[4:1],2,,,3x,2xh[8:3],
,,6-8-5[4:1],3,4/6,3,2,1h[4:1],
,6,7,8,{16}8/3pp1[4:1],,,8,{8}3,8,
,7,1/7V53[4:1]*-3[4:1],8,7,,,2xh[4:1],
,4,5/3>8>3[4:1],6,,,7,6h[8:3],
,,2-4-1[4:1],7,8/2,7,6,5h[4:1],
,2,3,4,{16}4/7pp5[4:1],,,4,{8}7,4,
{1}E4h[8:1],
B2h[8:1],
E1h[8:1],
{2}Ch[8:1],{16}8,,,7,,,{8}6,
{4}3/6p5[2:1],3,3,3,
6/2q4[2:1],6,6,6,
{8}4/6,4/6,5/3,5/3,2/6,2/6,7/3,7/3,
{16}8,8,4,4,7,7,3,3,{2}8-5[8:1]*>5[8:1],
{8}2-4[8:1]/8<5[8:1],7,{4}2/8,{16}7/2,,,2,8,1,{8}7,
7-5[8:1]/1>4[8:1],2,{4}7/1,{16}7/2,,,2,8,8,1,1,
{8}2-4[8:1]/8<5[8:1],7,{4}2/8,{16}2/7,,,3,{8}8<5[8:1],3,
4/8>3[8:1],4,{4}8/3,{8}6<2[8:1]/4>8[8:1],5,,,2-4[8:1]/8<5[8:1],
7,{4}2b/8b,{16}4/7p8[8:1],,,4,{4}7,
{8}7-5[8:1]/1>4[8:1],2,{4}7b/1b,{16}2/5q1[8:1],,,2,{8}5,2,
2-4[8:1]/8<5[8:1],7,{4}2b/8b,{16}7/4,,,7,{8}4,3,
7<4[8:1],2,1h[16:1],1h[16:1],2>5[8:1],5-1[8:1],,,{4}7,
7h[4:3],,,2,
2h[4:3],,,5,
5h[4:3],,,4,
4h[4:3],,,8,
1h[4:3],{2}2,
{4}4,5h[4:3],{2}6,
{4}6,7h[4:3],{2}8,
{4}3,2h[4:3],{2}1,
E
