&title=イガク
&artist=ナナヲアカリ / 原口沙輔
&first=0.369
&des=Kurage
&wholebpm=170.000
&lv_5=14
&des_5=
&inote_5=(170)
{4}4w8[8:3],,,8xb,
{8}
3b/5b,,A6h[8:1]/E7h[8:1],2h[8:1],4h[8:1],B1h[8:1]/A1h[8:1],5,3h[8:1],
,E7h[8:1]/A6h[8:1],2h[8:1],4h[8:1],3v8[8:1],5,6,,
1,7,E3h[8:1]/A3h[8:1],7h[8:1],5h[8:1],B8h[8:1]/A8h[8:1],4,6h[8:1],
,E3h[8:1]/A3h[8:1],7h[8:1],5h[8:1],{16}A6,E7,E8,A8,A3,E4,E5,A5,
{8}
1xb,,A7h[8:1]/E7h[8:1],3h[8:1],1h[8:1],B4h[8:1]/A4h[8:1],8,2h[8:1],
,A7h[8:1]/E7h[8:1],3h[8:1],1h[8:1],2>5[8:1],8,7,,
{8}8-5[8:1]*p3[8:1],,8b,,,1-4[8:1]*q6[8:1],,1b,
,8-5[8:1],,3bq8[8:1],3,6b,B1/E1/B8/A8/E8,,
{4}5b/1bh[4:7],6xh,,4xh,,7xh[16:3],,3xh,
{4}5h[4:6],2xh,,8xh,,1xh,{16}A3,E3,E2,A1,A6,E6,E5,A4,
{8}8x-5[8:1],,7,,8>3[8:1],3,4qq5[4:2],,5,6h[4:1],,,6,,{16}7,5,7,,
{8}8q5[8:1]/2-5[8:1],,8b/2b,,,1p4[8:1]/7-4[8:1],,1b/7b,,3-8[8:1]*p6[8:1],,3b,,E6,E5,E4,
{8}1-4[8:1],,2,,1<6[8:1],6,5pp4[4:2],,4,3h[4:1],,,3,,{16}24,,,,
{8}5-8[8:1],,3,,5>2[8:1],6,7p5[8:3],,1,2h[4:1],,,{16}A3,E3,E2,A1,A6,E6,E5,A4,
{8}8x-4[8:1],,7,,1-5[8:1],2,3q6[4:2],,6,7h[4:1],,,7,,{16}8,4,8,,
{8}7q4[8:1]/1-4[8:1],,7b/1b,,,2p5[8:1]/8-5[8:1],,2b/8b,,1-4[8:1],,6bp1[8:1],6,3b,B1/E1/B8/A8/E8,,
{8}6/5h[8:4],,,4x,4-6[8:1],,,,
{8}57,{16}6,5,6,,{8}5x/4x,6-4[8:1]/3-5[8:1],,,,
{8}3/4h[8:4],,,5x,5-3[8:1],,,,
{8}42,{16}3,4,3,,{8}4x/5x,3-1[8:1]/6-8[8:1],,,,
{32}3xb,4x,,,1xb,2x,,,7xb,8x,,,5xb,6x,,,{32}3xb,4x-8[8:1],,,{8},,,
{32}7xb,6x,,,1xb,8x,,,3xb,2x,,,5xb,4x,,,{32}7xb,6x-2[8:1],,,{8},,,
{8}1>4[8:1],4>1b[8:1],,,8<5b[8:1],5<8[8:1],,,
{8}1-5[8:1],,1w5b[8:1],,,,B1/E1/B8/A8/E8,,
{8}
3b-5[8:1]/5b-1[8:1],2,35,,8-4[8:1],4-8[8:1],8-6[8:1],1,
2>5[8:1],,4-1[8:1]*-7[8:1],,,,2xb/6xb,,
8-5[8:1]/5-2[8:1],7,58,,1-4[8:1],4-1[8:1],1-6[8:1],6,
7-3[8:1],,4<7b[8:1]*>1b[8:1],,,,B1/E1/B8/A8/E8,,
6-4[8:1]/4-8[8:1],7,64,,1-5[8:1],5-1[8:1],1-3[8:1],8,
7<4[8:1],,5-8[8:1]*-2[8:1],,,,1,1,
{16}
7,3,8,2,7-4b[8:1],3-5[8:1],8,,,,,,8,2,7,3,
8-4b[8:1],2-5[16:1],7,,,,,,{4}E1f/A8/A1/E8/E2/D2/D8,,
{8}
3b-7[8:1]/7b-4[8:1],8,37,,1-4[8:1],4-1[8:1],1-5[8:1],7,
6>3[8:1],,4-8[8:1]*-7[8:1],,,,2xb/6xb,,
1-4[8:1]/4-7[8:1],2,14,,8-5[8:1],5-8[8:1],8-3[8:1],3,
2-6[8:1],,5>2b[8:1]*<8b[8:1],,,,B1/E1/B8/A8/E8,,
6-2[8:1]/2-5[8:1],1,26,,8-5[8:1],5-8[8:1],8-4[8:1],2,
3<6[8:1],,5-1[8:1]*-2[8:1],,,,8,8,
{16}2,6,1,7,2-5b[8:1],6-4[8:1],1,,,,,,1,7,2,6,
1-5b[8:1],7-4[16:1],2,,,,,,{4}Chf[4:1]/B3/B2/E3/E7/B6/B7,,
{8}
8xb,,A2h[8:1]/E3h[8:1]/A3h[8:1],7h[8:1],5h[8:1],D8h[8:1]/E8h[8:1]/A8h[8:1],4,6h[8:1],
,A2h[8:1]/E3h[8:1]/A3h[8:1],7h[8:1],5h[8:1],6v1[8:1],4,3,,
8,2,A7h[8:1]/E7h[8:1]/A6h[8:1],2h[8:1],4h[8:1],D2h[8:1]/E2h[8:1]/A1h[8:1],5,3h[8:1],
,A7h[8:1]/E7h[8:1]/A6h[8:1],2h[8:1],4h[8:1],{16}A3,E3,E2,A1,A6,E6,E5,A4,
{8}
8xb,,A3h[8:1]/E3h[8:1]/A2h[8:1],6h[8:1],8h[8:1],D6h[8:1]/E6h[8:1]/A5h[8:1],1,7h[8:1],
,A3h[8:1]/E3h[8:1]/A2h[8:1],6h[8:1],8h[8:1],7<4[8:1],1,2,,
E3h[8:12],,,E7h[8:10],,,E4h[8:6],,
,E6h[8:4],,,,,B1/E1/B8/A8/E8,,
{1}5xb/4xbs8>1z5[4:10],,
{4},,,{8},8h[8:1],,8,8x,{16}8,8,8xw4[8:1],,,,{4},
{8}6x/2x,62,{16}3x,4,3,4,5,4,5x,4,5,6,5,6,
5,4,5x,4,3,4,3,4,5x-1[8:1],4,5,4,,,,,
{8}2-5[8:1]/8q5[8:1],,2b/8b,,6,7-4[8:1]/1p4[8:1],,7b-2[8:1]/1b,,2p5[8:1],,4bz8b[8:1],,,,,
{1}Ch[8:5],
{8}8b/1b,54,A6/E7/B6/A3/E3/B3,,8b-5[8:1]/7,4b-1b[8:1]/3,,,
A7/D7/A6/E7f,A2/D3/A3/E3f,{16}E8,E4,E6,E2,{4}Ch[4:1],1xb,
{8}
2b-5[8:1]/8b-4[8:1],3,28,,7-4[8:1],4-8-6[4:1],7,1,
2>5[8:1],,4xv1b[8:1]*v7b[8:1],,,,B1/E1/B8/A8/E8,,
7b-4[8:1]/5b-1[8:1],8,57,,2-5[8:1],5-1-3[4:1],2,8,
7<4[8:1],,5x-8b[8:1]*-2b[8:1],,,,1,1,
{16}
7,2,6,3,7-4b[8:1],2-5[16:1],6,,,,,,1,8,2,7,1-5b[32:5],8-4[32:3],2,,,,,,2b/7b,,,,{32}3x,4x,5x,6x,7x,8x,1x,2x,
{8}
3xb,8-5b[8:1],5<8[8:1],8>3b[8:1],3bV16[4:1],,6bV48b[4:1],,
3b,,1<3[4:1],2,3b,,1x,,
36,2-5[8:1],5>2[8:1],2-8[8:1],8-4-6[4:1],,6-1-3[4:1],,
1,,5w1b[8:1],5,,,B1/E1/B8/A8/E8,,
3-7[8:1]/6-1[8:1],5,36,,2-6[8:1],6V47[4:1],2,8,
1-5[8:1],,5w1[8:1],,,,37,6,
{16}1,4,2,5,1-5b[8:1],4-7[16:1],2,,,,,,8,2,6,4,8-4b[8:1],2v5[16:1],6,,,,,,{4}3b-8[8:1]/6b-1[8:1],,
{32}2x/7x,3x/6x,5x/4x,
