&title=Tiny Fate
&artist=Capchii
&first=0
&lv_5=14+
&des_5=MMmengmeng
&inote_5=
(202){4},,,,3b,
{8}6,5/7h[4:1],,4,{4}5/2h[4:1],
{8}7,1/6h[4:1],,2,{2}1b/3b<6[8:1],
{4}8bh[4:1],{8}5,6/4h[4:1],,7,{4}5/8h[4:1],
{8}3,6/2h[4:1],,5,{4}3bq7[8:1],8b<5[8:1],
8/2h[4:1],{8}4,5/1h[4:1],,6,{4}2/7h[4:1],
{8}2,6/3h[4:1],,7,{4}8/2b>5[8:1],{16}2/6h[4:1],D4,A5,D7,
{8}8x,8x,1x,1x,6x,6x,7x,7x,
{4}1h[4:1],{16}8,8,8,8,8,8,8,8,{4}8b-4b[8:1],
8b/1b,3h[8:1],{8}6h[8:1],{16}3,4,{8}2,2,
{16}6,5,{8}7,8-4[8:1],8,{4}3-1[16:1],3,
{8}7,{16}4,5,{8}3,2,{16}6,5,{8}7,8,{16}3,4,
{8}1-5[8:1],2,{4}1/6-8[16:1],6/2>5[8:1],2,
7h[8:1],{16}6,1,6,1,{8}6<8[8:1],8-4[8:1],6,2-5[8:1],
,2,,7-4[8:1],,7,{4}1h[8:1],
2h[8:1],{16}3,6,3,6,{8}3-5[8:1],5v2[8:1],{4}3,
{8}7-4[8:1],7,,2h[16:1],8h[16:1],2,{16}3,4,3,4,
{4}3-1-5[4:1],3,{8}7,8-6[16:1],,8/1-5[8:1],
,1/2>5[8:1],,2/6,,7,8<5[8:1],2,
{4}8,{16}1,4,1,4,{8}1V35[8:1],5-1[8:1],{4}1,
{8}6,7<4[8:1],,7,2,1,{16}7,5,7,5,
{4}7V15[16:3],{8}7,2,3,4>1[8:1],,4/8,
,7,{16}7,1,{24}7,6,5,{8}4,2,3,4/8,
{16}3,7,3,7,2,6,2,6,1,5,1,5,{32}1b,2x,3x,4x,5x,6x,7x,8x,
{4}1xh[4:1],6h[8:1],{8}2,8,{16}1b-5b[8:1],1,1,1,
,,,,{8}7,4,8<4[8:1],4v7[8:1],{4}8,
1>4[8:1],1p6[4:1],1,{8}3x,2x,
{16}1x-5-8[4:1],2x,3x,4x,{4}5x/1x,3-7[8:1],3V15[16:3],
6h[8:1],7<4[8:1],7,8h[8:1],
1>5[4:1]/4-8b[8:1],1/4<5v2[16:3],,7V53[4:1]/3-7[8:1],
{2}7-2[8:1],{4}8-4[8:1],8,
{16}3x,2x,1x,8x,7x-3[8:1],6x,5x,4x,{4}3x/7V15[4:1],7,
{8}6,E3/B3,7,B6/B5,1,1,{16}1b/8b,7,6,5,
{4}4-6-8[16:3],3-7[8:1],{8}3,1-7-5[16:3],,,{4}2>6[16:3],
2/8-5[8:1],8q3[4:1],8,
{8}8-2-7[16:3],7,{4}8,4>1[8:1],4/8V64[8:1],
8-2-5[4:1],5v2[8:1]/8-6[8:1],8-4[8:1],8,
{8}1V75[8:1],5-1[8:1],{4}1>4[8:1],{8}6x,7x,{16}8x,4x,8x,8x,
{4}4x-2[16:1],4/5-1[8:1],{2}5/7-1-6-2[4:1],
{8}3-8[8:1],3,5-2[8:1],5,{4}1>6[16:3],1,
{24}8b,1x,2x,4h[16:1],,,8b,7x,6x,4h[16:1],,,1bh,2,3,5h[16:1],,,{4}8b,
{16}1/7-3[0.2228##0.1485],,,7/1,,,{8}7/1-5[0.2228##0.1485],{16},7/1,,,{4}7/1,
{16}2/8-4[0.2228##0.1485],,,8/2,,,{8}8/2-6[0.2228##0.1485],{16},8/2,,,{4}8/2,
{16}8h[8:1]/2h[8:1],,,8h[8:1]/2h[8:1],,,,7h[8:1]/1h[8:1],,,{8}7h[8:1]/1h[8:1],,7/1,
{16}6/8,,,6/8,,,{8}7/1,{16},7/1<1[0.2228##0.297],,,A1,A7,A5,A3,
{4}7x<4[8:1],{16}7x/1x,,,7/1>4[0.2228##0.1485],,,{8}7/1,{16},1/7,,,{4}2/8<5[8:1],
{16}8/2,,,8/2>5[0.2228##0.1485],,,{8}8/2,{16},2/8,,,{4}1/7<4[8:1],
{16}7/1,,,7/1>4[0.2228##0.1485],,,{8}7/1,{16},1/7,,,1/7,
,,1/7,,,{8}1/7,7h[4:1],{16}8,{32}6,5,4,3,2,1,8,7,6,5,
{1}4/Cf,
,,,1x>1[1:1],
1x>1[1:1],
1x>1[1:1],
{4}1x>5[4:1],,,6x/7x,
{1}2>6[8:11],
{4},,,8x/7x,
{1}8xV64[8:5],
{2}1x>5[16:3],{16}6x,7x,8x,1x,4x,3x,2x,1x,
{2}8x/7xv4[8:1],7x/1x-5[8:1],
6x/E3/B2/B3,{8}2/6,6/2,{24}1,7,1,7,{12}1,
{4}6h[8:1]/5h[8:1],7h[8:1]/4h[8:1],4h[8:1]/3h[8:1],2h[8:1]/5h[8:1],
{16}1,4,3,4,1,4,3,4,{24}2,4,2,4,2,4,{4}1b-5[8:1],
1b/8b,7b<4[8:1],{8}2b,1b-5-1[16:3],,1b,
,7bv4[8:1],,3b-8[8:1],{16},,,,,,6,5,
{8}6-1[12:1],7,6/2-6[8:1],3,2>5[8:1],7-1[16:1],2,7-4[8:1],
3-7[8:1],7,3,8,{16}1,2,3,4,5,6,7,8,
{8}1/5-1[8:1],2-5[12:1],5,2,8-4[8:1],3-8[12:1],8,3,
6-2[8:1],5,6/1-5[8:1],8,1-3<4[12:1],6v1[12:1],1,6,
4V28[8:1],6,4,7-4[8:1]*-5[16:1],,7b-2[8:1]*-1[16:1],,7b,
,5x,4x/6x,3x/7x,{16}8x,7,6,5,4/1,2,3,4,
{4}5/1-5[8:1],1b/8b,{8}7<4[8:1],8,7/1-5[8:1],8,
1-3[16:1],6v1[8:1],1,6,4-8[8:1],7-4[8:1],4,7,
1>4[8:1],6,1,8-5[8:1]*V64[8:1],,8bV24[8:1]*-3[8:1],,8b,
,6,{4}5h[8:3],{16}6,7,8,1,6-3[8:1]/2-7[8:1],3/7,4/8,5/1,
,,,,{4}5<8[8:1],{8}1-5-2[16:3],2,1,8-6[16:1],
,8-4[8:1],3-8[8:1],8,3,7,6-1[8:1],5,
6,3v8[8:1]*-8[8:1],4,3-6[8:1]*V57[8:1],,3bV17[8:1]*-8[8:1],,A3,
,5,{4}6h[4:1],{12}7x,7,7,1x,1,1,
4x,6,6,2x,7,7,5x,8,4,7x,3,5,
1x,6,6,8x,3,3,1x,4,2,7x,4,6,
1x,7,7,3x,6,6,8x,5,1,6x,2,8,
4x,7,7,5x,2,2,4x,1,3,6x,1,7,
2h,6h,4h,7h,3h,5h,8h,5h,5h,2h,6h,6h,
4h,7h,7h,1h,5h,5h,2h,2h,2h,8h,8h,8h,
6x,7,7,4x,1,1,3x,3,3,7x,7,7,
1,1,1,8,8,8,1/8,1/8,1/8,8z4[8:1]`1s5b[8:1],,,{1}8b/1b,
,,,6>4[16:11],
3<6[4:3],
7p3[4:3],
{4}1s5[16:13],,,8bv5[16:1],
{1}8b>4[4:1],
{6}7h[6:1],6h[6:1],5h[6:1],4>1[12:1],{12},{4}4x<7[12:1],
4x/8h[4:1],{12}1h[6:1],,2h[6:1],,3h[6:1],,{4}4-1[6:1]*V28[6:1],
{2}4,{4}5h[12:1]/6h[6:1],3h[6:1]/4h[12:1],
{2}7/8-4[12:1],2/1-5[16:1],
4/3-8[16:1],{4}5/6-1[16:1],2,
7/B2/B3/B4/E4/E3,1/B6/B5/B7/E7/E6,7/B1/A1/E2/D2/A2/B2,3/B7/A7/E8/A8/D8/B8,
{16}2,4,3,4,2,4,3,4,{24}2,4,2,{96}1x,,,8x,,,{32}7x,6x,{4}5x/Cf,
{8}2-6[8:1],{16}3,5,{8}2>5[8:1],7-1[16:1],2,7-4[12:1],3,7,
1V35[16:3],{16}2,4,{8}1-7[16:1],6,1>4[8:1],6v1[8:1],1,6,
4x-8[8:1],7h[16:1],4x,6,5<8[8:1],1-5[8:1],5,1,
1-7[16:1],{16}3,3,{8}1-6[12:1],{16}2,2,{4}1<5[8:1]*>4[8:1],A1/D1/D2/B1,
{16}8xh[16:3],,,7xh[16:3],,,{8}6xh[16:3],{16},5xh[16:3],,,{4}B2/B3/C,
{16}1xh[16:3],,,2xh[16:3],,,{8}3xh[16:3],{16},4xh[16:3],,,{4}C/B7/B6,
{24}2,4,2,4,{12}2,{24}7,5,7,5,{12}7,{16}2,4,2,7,5,7,1,8,
{24}1,8,1,8,1,8,2x,7x,2x,7x,2x,7x,{4}2x-7[24:1],A2/E2/A7/E8,
1b-5[12:1],{8}1/6,7-4[8:1],,7/2,{4}3-7[8:1],
{8}3/6,5<8[8:1],,5/1,{4}2w6[8:1],2b,
8b-4[12:1],{8}8/3,2-5[8:1],,2/7,{4}6-2[8:1],
{8}6/3,4>1[8:1],,4/8,{4}7w3[8:1],7b,
1b-5b[12:1],{8}1/6,7-4b[8:1],,7/2,{4}3-7b[8:1],
{8}3/6,5<8b[8:1],,5/1,{4}2h[4:1],{32}B2,1/3,4/8/B8/B4,5/7,{8}B6,
3x,3x,6,6,1,1,8,8,
{4}1h[2:1],{8}8,{16}2,3,4,5/2x,6/3x,7/4x,{4}8h[4:1]/5h[4:1],
{32},4x/7x,3x/6x,2x/5x,{8}1x/4x-7-1-4[8:11],
E
