&title=神鳴
&artist=Rígr feat. 光吉猛修
&first=-0.419
&des=Caerulea
&lv_5=14+
&des_5=Caerulea
&inote_5=
(205){4},{16},,,,,,,,,,4,5,
{1}4>5[2:3],
{8},,,,,,,,3,
B4,B2,5,B3,B5,{4}2h[4:5],
,,,,{1}8<1[2:3],
{8},,,,,,,,7,
B8,B6,1,B7,B1,{4}6h[4:5],
,,,,{1}Cf,
{8}5/6bh[4:1],,,4/3bh[4:1],,,{4}4bz8[8:1]/5bs1[8:1],
{2}E5f/B5/B4,{8}2b-6[8:1],1,{4}2/8,
{8}7-3[8:1],8,7/1,2,2-6[8:1],1,{4}2/8,
{8}7,5,8,{16}2,1,2,1,{8}3h[8:1],{4}C,
{8}2,4,1,{16}7,8,7,8,{8}6h[8:1],{4}C,
4h[8:1]/7h[8:1],{8}7/4,{16}6,5,{8}6,3,4,3,
{4}5h[8:1]/2h[8:1],{8}2/5,{16}3,4,{8}3,6,5,6,
{4}2-4[8:1],1-5[8:1],8-4[8:1],7-5[8:1],
2bh[4:1],4b,{8}2/4,1/5,{16}8,6,8,6,
{8}1,2,3/7,6,2/5,3,4/8,7/5,
{16}6,5,{8}6,{4}4h[8:1]/7h[8:1],{16}3,4,{8}3,{4}5h[8:1]/2h[8:1],
{8}7/3h[8:1],6,5/1h[8:1],6,7/3h[8:1],6,5/1h[8:1],6,
3/7h[8:1],4,5/1h[8:1],4,3/7h[8:1],4,5/1h[8:1],4,
3/8,7,6/2,3,7/4,6,5/1,2/4,
{16}3,4,{8}3,{4}5h[8:1]/2h[8:1],{16}6,5,{8}6,{4}4h[8:1]/7h[8:1],
{8}2/6h[8:1],3,4/8h[8:1],3,2/6h[8:1],3,4/8h[8:1],3,
6/2h[8:1],5,4/8h[8:1],5,6/2h[8:1],5,4/8h[8:1],5,
{4}6/2V46[4:1],{8}2/5,6,{4}7V53[4:1],{8}7/4,2,
{4}1-5[8:1],1/6,8-4[8:1],8/3,
{8}2V46[4:1],6,{4}6p1[4:1],{8}1V35[4:1],8,{4}7,
{8}7V53[4:1],7,{4}3q8[4:1],{8}8V64[4:1],1,{4}2,
3V17[4:1],{8}3/8,7,{4}6V82[4:1],{8}6/1,3,
{4}4-8[8:1],4/7,5-1[8:1],5/2,
{8}3V17[4:1],7,{4}7q4[4:1],{8}4V28[4:1],5,{4}6,
6V82[4:1],2p5[4:1],{8}5V71[4:1],4,3,2,
{1}Ch[2:7],
,8<1[4:5],
{16},,,,,,,,,,,,,,,,2,
1,2,1,{8}3,8-4[8:1],2-6[8:1],8b,{4}2b,
{16}7,8,7,8,{8}6,1-5[8:1],7-3[8:1],1b,{4}7b,
{16}8/4>1[8:1],7,6,5,{8}4,A1,7-4[8:1],8,{4}7,
{16}1/5<8[8:1],2,3,4,{8}5,A8,2-4[8:1]*-5[8:1],1,{4}2,
{16}7,8,7,8,{8}6,1-5[8:1],7-3[8:1],1b,{4}7b,
{16}2,1,2,1,{8}3,8-4[8:1],2-6[8:1],8b,{4}2b,
{16}1/5<8[8:1],2,3,4,{8}5,A8,2-5[8:1],1,{4}2,
{16}8/4>1[8:1],7,6,5,{8}4,A1,7-5[8:1]*-4[8:1],8,{4}7,
{8}1V35[4:1],7,5-1[8:1],7,1-5[8:1],7,{4}5,
{8}8V64[4:1],2,4-8[8:1],2,8-4[8:1],2,{4}4,
{8}1,7,6b/5,{16}8,1,{8}7,{16}3,4,{8}2,8,
2,3/4,{16}5,6,7,8,4,3,2,1,{4}5b,
{8}5V71[8:1],3,1-5[8:1],3,5-1[8:1],3,{4}1,
{8}4V28[8:1],6,8-4[8:1],6,4-8[8:1],6,{4}8,
{8}5,3,2b/1,{16}4,5,{8}3,{16}7,8,{8}6,4,
6,7/8,{16}1,2,3,4,8,7,6,5,{4}1b,
3v8[8:1]/7v4[8:1],Cf,{2}5b/1b,
{16}2/8h[4:1],3,4,5,,,{8}7,{16}7/1h[4:1],6,5,4,,,{8}2,
{4}6v1[8:1]/2v5[8:1],Cf,{2}4b/8b,
{16}3,4,5,6,5,4,{8}3,2/7,1,8,7,
{4}2v5[8:1]/6v1[8:1],Cf,{2}8b/4b,
{16}3/5h[4:1],2,1,8,,,{8}6,{16}6/4h[4:1],7,8,1,,,{8}3,
{4}7v4[8:1]/3v8[8:1],Cf,{2}1b/5b,
{12}3,4,3,6,5,6,1,2,3/5,6/4-1-3-7b[4:15],5/7,6/8h[12:19],
{1}B7f,
,6b-2[2:3],
{4},,,,8b/1b-5[2:1],
6,7,6,
1b/8b-4[2:1],3,2,3,
6b-2[4:1],4,3b-7[4:1],5,
8b-4[4:1],1,{12}1b-5[2:1],1,1,8b-4b[4:1],8,8,
{4},,,{32}1b,2/8,7/3,4/6,{8}5bx,
{12}6,5,6,5h[6:1],,7,{6}7/4,{12}1,8,1,8,
2/5,2,,4/1,4/1,,3,5,2,6,3,5,
3,4,3,4h[6:1],,2,{6}2/5,{12}8,1,8,1,
7/4,7,,5/8,5/8,,6,4,7,3,6,4,
7,5,8/2,{24}2b,3,4,8,7,6,{6}5,{12}1/7,{24}7b,6,5,1,2,3,
{6}4,{12}5,5h[6:1],,3,{6}3h[6:1],{12}6,6h[6:1],{24},,,,2b/5,
1,8,7,6,5,{12}4,5h[6:1],,3,3h[6:1],,6,6h[6:1],,5,
7,4,8,2,7,{24}3b,4,5,6,7,8,{4}1,
{16}1b/7b,,,7b/1b,,,{8}1b/7b,{24}2,3,4,5,4,3,{16}8b/2b,,,2b/8b,
,,{8}8b/2b,{24}7,6,5,4,5,6,7,8,1,2,3,4,{32}1bx/5bxh[4:1],2bx,3bx,4bx,{8}E5f,
,,,,,,,,,,,,,,,,{1}2bpp4pp6pp8pp2qq8qq6qq4qq2b[4:31]/6bqq4qq2qq8qq6pp8pp2pp4pp6[4:31],
,,,,,,,,{8}2,
{16}8,1,{4}7h[8:1],{8}7,{16}1,8,{4}2h[8:1],
{32}1b/8bq6q4b[1:1],2/7,3/6,4/5,{4},,,{16},,{2}4q2q8[1:1],
8h,
{1}8q6q4b[1:1],
{2}4q2q8[1:1],1h,
{1}1bp3p5b[1:1],
{2}5p7p1[1:1],1h,
{1}1p3p5b[1:1],
5p7p1[1:1],
Cf,
{8}8/2,7,6/4,{16}3,5,3,5,{8}2,{4}1/7,
{8}1/7,2,3/5,{16}6,4,6,4,{8}7,{16}8/2,3,4,5,
2,1,8,7,3,4,5,6,3,2,1,8,{4}7/C,
{8}1-5[8:1],1,8-4[8:1],8,7-3[8:1],7,6-2[8:1],6,
5-1[8:1],5,4-8[8:1],4,3-7[8:1],3,2-6[8:1],2,
1b,1,1,1,8b,8,8,8,
{16}1b,7,1,7,2b,8,2,8,{24}1bh,2,3,7bh,6,5,2bh,3,4,8bh,7,6,
{1}1bh[8:11]/5-8[2:1],
{8}8,8,8,8,{32}8b,7,6,5,4,3,2,1,8b,7,6,5,4,3,2,1,
{4}8b/4b,{16}6,5,7,4,6,5,7,4,6,5,7,4,
6b,5,2,3,7,6,3,4,8,7,4,5,{24}8,1,2,3,4,5,
{4}6b/2b,{16}3,4,2,5,3,4,2,5,3,4,2,5,
3b,4,7,6,2,3,6,5,1,2,5,4,{24}1,8,7,6,5,4,
{4}7b-1[8:1]/3b-5[8:1],3/7-3[8:1],{8}7/2-6[8:1],1,2,8-4[8:1],
1,8,{16}3,2,1,8,6,7,8,1,3,2,1,8,
{4}4/7bh[4:1],{16}E5,E6,E7,E8,{4}E1f,{16}8x,2,8,2,
{4}7-4[8:1]/3-8[8:1],3b/7b,6-1[8:1]/2-5[8:1],6b/2b,
{16}7/2b,6,5,4,3/8b,4,5,6,7/2b,6,5,4,3/8b,4,5,6,
7/2b,3,4,5,6/1b,5,4,3,2/7b,3,4,5,6/1b,5,4,3,
2/6b,7,8,1,2/5b,1,8,7,6/3b,7,8,1,2/5b,1,8,7,
6/3b,2,1,8,7/4b,8,1,2,3/6b,2,1,8,7b/3b,8/4,1/5,2/6,
3/7-4[8:1],,,5,{8}7,{16}3,2,{4}1-5[8:1],1/5,
{16}6,7,8/4,3,2/5,6,7/3,2,1/8,7,6,5,4,3,2,1,
{4}8-4[8:1]/7-3[8:1],7/8,{16}6,6,6,6,6,6,6,6,
6,6,6,6,6,6,6,6,{32}6,5,4,3,2,1,8,7,6,5,4,3,2,1,8,7,
{4}2-6[8:1]/6-2[8:1],Cf,{32}8b,7/1,2/6,5/3,,,,,,,,,,,,,{4}7-3[8:1]/3-7[8:1],
Cf,{32}1b,2/8,7/3,4/6,,,,,,,,,,,,,{16}1h,
2,3h,4,1,2h,3,4h,1h,2,3h,4,{32}1b,2,3,4,1b,2,3,4,
{4}8b-4[8:1],8,2-5[8:1]/6-1[8:1],2b/6b,
3-7[8:1],4-8[8:1],5-1[8:1],6-2[8:1],
3q7[8:1],4q8[8:1],5p1[8:1],6,
{8}4-8[8:1]/5-1[8:1],6/3,{4}4b/5b,{8}6-1[8:1]/3-8[8:1],5/4,{4}3b/6b,
{32}7b,6,5,4,3,2,1,8,7,6,5,4,3,2,1,8,7/2b,3,4,5,6,7,8,1,2,3,4,5,6,7,8,1,
2bh[8:5]/6bh[8:5],{4},,{16},,{32}3b/7b,4b/8b,5b/1b,,,,,,,,,{16}7b,
5b,7b,5b,{4}8bh[4:1],{16}2b,4b,2b,4b,{4}1bh[4:1],
{24}8b,7,6,5,4,3,6b,5,4,3,2,1,{12}6,6,6,8,8,8,
{6}1b/7b,1b/6b,1b/5b,{24}8b,1,2,3,4,5,2b-6[8:1]*-6[8:1],3,4,5,6,7,
{1}8bh[1:2]/Cf,
,{32}4b,
3/7,2b/6b,1/5,{48}4b/8b,B7/Cf/B3/A3/A7,
E
