&title=Deity Mode
&artist=ReeK/Asatsumei/L4hee
&first=0.13
&des=Difty Made
&lv_5=14+
&inote_5=(180)
{1},,,,
{4},
{16}1,6,2,5,3b>5[1:2]/4b,,,,,,,,
{4},,,,,,
{8},8h[4:1],,,6h[4:1],,,1h[4:1],,,3h[4:1],,,4h[4:1],,,
{16}6,5,6,4,7,,3,,5<8[4:1],,,,1,,2,,3s7[8:3],,,,,,7s3[8:3],,,,,,,,,,
{8}4,3,5,4,6,4,7,5,4/8h[8:1],5h[8:1],6h[8:1],2h[8:1],4,35,26,17,
8b/2h[4:1],,4,3,4,2,24,,4,3,5,
{16}3,4,3-5[8:1],,,,6b,,,,56,,,,
{8}5,6,5,7,75,,5,6,4,
{16}6,5,6,,
{8}7,8,
{16}2,1,2,,3,4,3,,6,5,6,,7,,8,,1,,24,,5,,6,,7,,
8h[8:1],,5,,7h[8:1],,4,,6h[8:1],,3,,5h[8:1],,2,,4,3,5,2,6,1,7,1,
8b-4[2:1],,,,1h[8:1],,,,2hh[8:1],,,,3b-5[8:1],,,,
1h[8:3]/3,,,,,,6h[8:3],,,,,,7qq4[2:1],,,,,,,,,,3,,,,
3/5h[8:3],,,,,,8h[8:3],,,,,,4h[8:3],,,,,,2<4[2:1],,,,,,,,4,,
,,8,,,,7b-3[8:1],,,,
5h[8:3],,,,,,3h[8:3],,,,,,1>6[8:3],,,,,,,,,,7,,,,58,,,,,,47,,5,6,,,47,,5,6,,,47,,3,,
28,,6,5,6,,3,,4b-8[8:1],,,,,,,,
{24}1,2,3,4,5,6,7,8,1,2-6[8:1]/6h[4:1],,,
{8},,
{16}7,,,8,,,1,,,,4,,3,,6,,5,,7,,5h[4:1]/7,,,,
6,,2,,4h[4:1],,,,2,,7,,5,,5,,6,,2,,3h[4:1]/4,,,,1b-4[8:1],,,,
7h[4:1],,,,5,,5h[4:1]/6,,,,8,,28,,3,,5,,4,,5,,3,,24,,35,,46,,5b/7,,
{24}4/6,37,28,1h[4:1],,,,,,
{8}8,8-5[8:1],,4-8[8:1],,7-4[8:1],,3,,
{16}1,7,2,6,3,5,4,,
{8}8/2b,,28,8,28,,27,,2,,2/4,4,2,6,26,,
1/7b,,17,1,27,2,37,,7,,57,,76,5b,47,3,
{8}5/3b,,35,5,35,,36,,3,,3/1,1,3,7,73,,
4/6b,,46,4,6,3,36,,26,3,5,4,7,7,1,1,2b/8h[1:1],2,3,,2,3,,2,3,4,8,7,5,4,7,3,
1h[1:1]/5,5,6,,5,6,,5,6,7,1,2,3,8h[4:1]/4,,6,
2/5h[4:1],2,3,2,2,4,2,2,5,6,47,5,8h[4:1],2,3h[4:1],5,6b-3[8:1],,26,1,1,4,2,7,
5h[8:1],6,3,4,2,2,17,,
{16}5b/6,,3,4,3,,3,,6,,,5h[8:1],,,5h[8:1],,7,6,7,,7,,2,1,2,,,4h[8:1],,,4h[8:1],,
3,,6,5,6,,6,,8,,,7h[8:1],,,7h[8:1],,2,,2,1,
{12}2,4,3,
{16}4,,35,,46,,7,,2,4,3,4,3,4,1,4,3,4,3,4,2,5,3,5,3,5,2,5,4,5,4,5,
{12}3,4,2,7,5,6,
{16}4,6,5,6,5,6,3,6,5,6,5,6,2,6,5,6,5,6,1,6,5,6,5,6,8b,7,8,7,2b,1,2,1,
3b-6[1.56##0.5],,,,,,,,7b-2[0.89##0.5],,,,,,,,,,,,,,,,,,,,,,,,
{16}1b/8,2,3,4,5,6,7,8,1h[4:1]/6b-3[8:1],,,,,,,,
24,,2,,2,,2h[8:3],,3b-6[8:1],,,,,,,,16,,6,,6,,6,,5b,,7h[8:1],,2h[4:1],,4,,
1-4[8:1],,,,5,,8-5[8:1],,,,3,,1b<3[4:1],,,,1b,,1,8,7,6,5qq1[8:3],4,3h[4:1],,,,,,,,
7,8,7,8,7,8,6,,2-6[8:1]/4,,,,,,,,
{16}7,,5h[16:1],,56,,3,,24,,3h[16:1],,3/5h[16:1],,6,,
4b/7,,8b,,2b,1,2,,3b/8-5[8:1],,4/6b,,,,,,
4,3,2,1,7,6,5qq6[8:3],4,8,,35,,,,,,
{8}1h[8:1],7h[8:1],5h[8:1],2h[8:1],3b-8[8:1],,,,
1h[8:1],4h[8:1],6h[8:1],8h[8:1],5b-2[8:1],7,5,6,
{16}16,2,3,45,6,7,1,2,3,45,6,7,
{24}4<3[8:3],3,2,1,,,4b,,,,,,
{16},,,,8bs4[4:1],,,,,,,,
{8}7h[8:1],5h[8:1],4h[8:1],2h[8:1],
{16}6bv3[8:1],,1,1,6,,,,
{24}2,1,2,1,2,1,4h[8:1],,,6,,,
{16}5b,,,6b,,,4b,,4b-8[16:1],,,5b,,,
5b-7[16:1],,2bs6[4:1],,,,,,,,
{16}8,1,2,3,4,,1,,
25,,34,,47,,8,,6,5,6,,47,,38,,2,1,2,,3b-8[8:1]/4,,16,,7b>5[4:1],,,,6b,,,,
7,,46,,37,,28,,3,4,3,,26,,7,7,5,4,3,2,8-4[8:1],7,6,5,8b,,,,
2h[8:1],,4,,34,,6,5,6,,17,,28,,3h[8:1],,4b,3,5,2,
{24}6b,7,8,1,2,3,4,,,17,,,
{16}5b/6,,3,4,2,4,3b,,5h[8:1]/7,,6,,6b/5,,17,,2b/4,,6pp2[8:3],,,,7h[4:1],,,,,,
4,,,,3h[4:1]/7,,,,4,,4,,
{32}2b/5,3,4,5,,,,,2b/6,3,4,5,,,,,2b/7,3,4,5,,,,,2b/8,3,4,5,,,,,
{16}1b,8,7,6,5/4-7[8:1],3,2,1,4,,2,,3,8,4,7,5h[4:1]/6,,,,
8,,2,,3,,4,,1s5[4:1]/5,,,,,,,,7b,,,,5-1[8:1]/6,,37,,5/8s4[1:1],,,,
{1},
{4}1,1,
{8}2,2,4,4,
{16}8,7,1,6,2,5,3,4,2-5[8:1],,,,5-1[8:1],,,,1,,8,,7,,6,,
52,,36,,47,,5,,1,8,7,6,53,,2,,1-5[8:1]/7,,6,,5,6,7,8,1,2,3,4,51,,26,,
3h[8:1],,4,,7h[8:1],,5,,6,5,6,,47,,3,,2/8-4[8:1],,7,,6h[4:1],,,,
5>2[8:1]*<8[8:1],,,,5,,,,17,,2,,3/4-8[8:1],,5,,6,,,,17,,8,,
2,3,4,5,6,7,8,1,24,,5,,46,,7,,1-5[8:1],,,8,1,,7,,
6/4<7[8:1],,3,,2,,1>4[8:1],,,,17,,6,,6,,
{24}5,4,3,2/8,,,7,,,,,,
{16}47,,63,,52,,4h[8:1],,8,1,2,3,46,,7,,8-4[8:1]/2,,3,,4,3,2,1,8,7,6,5,48,,73,,
6h[8:1],,5,,2h[8:1],,4,,3,4,3,,52,,6,,7/1-5[8:1],,2,,3h[4:1],,,,
4<7[8:1],,1>4[8:1],,4b,,1b,,8,,7,,6/5-1[8:1],,4,,3,,,,82,,1,,
7,6,5,4,3,2,1,8,75,,4,,53,,2,,8-4[8:1],,,1,8,,2,,
3/5>2[8:1],,6,,7,,8s4[4:3],,,,,,
{4},,,
{16}1/6h[4:1],,,,4,,5h[4:1],,,,,,4h[4:1]/2,,,,
(175)
3h[4:1],,4h[8:1],,,,5h[4:1],,,,4,6,5,,7,,
(154)
3,,3,5,4h[8:1],,6,2,4h[8:1],,3,,28,,,1,
(130)
{24}7,6,5,41,2,3,
{16}4,6,5,7,3pp6[4:1],,2,1,3b,,,,
(132)
7h[8:1],,5,,8,2,8,6,7h[8:1],,5,,2,1,2,,
3/7h[8:1],,5,,8,2,8,6,7-4[12:1],,3-5[12:1],,7,,2b,,
7h[8:1],,8,,6,4,6,8,7h[8:1],,1,,4,5,3,,26,,3,4,2,,6,5,7pp3[4:1],,8,1,7b,,,,
1-4[8:1],,4,,5-2[8:1],,6,,5,,7,7,1,,16,,
8-5[8:1],,7,,3-8[8:1],,2,,3,,4,4,1,,5b/7,,
6-8[16:1],6,,,1-5[16:1],1,,,4-2[16:1],4,,,8,8,1b,,
{24}7,6,5,2,3,4,8,7,6,1,2,3,4
{16}6V48[16:3],,28,,6b/4,,,,
1>4[8:1],,,8,1,,5,,1>4[8:1],7,,7,1,,6,,1>4[8:1],7,8,7,1,,5,,
1b>4[8:1],,5b<8[8:1]/6,,,,,,
2h[16:3],,3,3,2,6,5,7,1h[16:3],,3,3,2,6,5,7,1h[16:3],,3,3,2,6,5,7,
8<5[8:1],,3>8[8:1],4,8,,,,4-7[8:1],,,3,4,,1,,5-8[8:1],,,3,5,,1,,
7-4[8:1],1,8,2,7,,3b>8[8:1],,1/7b<4[8:1],,35,,7,,1,,
1h[16:3],,3,3,2,6,5,7,1h[16:3],,3,3,2,7,8,6,
{24}4,3,2,1,8,7,64,,37,,37,,1b-5[8:1],,,,,,5b,,,,,,
{8}7,,3h[4:1]/4,,7,,3h[4:1]/4,,7,,2h[4:1]/4,,7,,1h[4:1]/4,,
7-5[8:1],,7,3,8-4[8:1],,8,2,7-5[8:1],,3-1[8:1],,4-8[8:1],,5-7[8:1],,
8h[16:1],1h[16:1],2h[16:1],3h[16:1],46,
{16}7,5,6h[16:1],,3,5,
{8}4h[16:1],5h[16:1],6h[16:1],7h[16:1],82,
{16}3,1h[16:1],2,,7,1,86,,57,,46,,35,,2,4,3,5,4,6,5,7,
{24}4,3,2,1,8,7,62,5,4,3,2,1,84,7,6,5,4,3,26,1,8,7,6,5,
(134.5)
{1}8b-5[1:1],
{4},,
{8}4,,2,,
(142)
{1}1b-4[1:1],
{4},,
{8},8b,,,
(148)
{8}5bv8[1:1],,1,2,,1,2,,1,2,1,2,3,1,2,3,
(151)
4bv1[2:1],7,6,5,6,7,5,6,
(157)
7b,17,26,35,4h[8:1],6h[8:1],5h[8:1],8,
(161)
8/2bpp5[1:1],,7,7,,6,6,8b-5[8:1],,,,4,4,3,2,,
(167)
7bqq4[1:1],,1,1,,3,3,2b,
,1,1b,,5,3/5b,4,6,
(174)
5bqq1[1:1],,6,7,,7,8,8b,,8,7,6,35,2,2,4,
(179)
3/4b-8[4:1],,,,,1,1,7b,
4h[8:1],6h[8:1],2h[8:1],4h[8:1],1,2,3,4,
(180)
{16}57,,6,5,6,,4,,2h[8:1],,4h[8:1],,3h[8:1],,5h[8:1],,2,,3,4,3,,5,,7,,6,5,6,,4,,
38,,27,,1,,6,,5h[8:1]/2,,3h[8:1],,4h[8:1],,2h[8:1],,
8,,
{24}1,7,1,7,,,6,,,
{16}5,6,4,5,3,,24,,
18,,1,,4,,2,1,2,1,3,4,3,4,1,8,1,8,4,5,4,5,8,7,8,7,5,6,5,6,3,4,3,4,
2,1,3,8,4,7,5,6,8,7,2b,1,3,8,5b,6,4,7,8b,7,1,6,
{32}1b,2,3,4,5,6,7,8,1,2,3,4,5,6,7,8,
{4}1h[4:1],,1h[4:1],,2h[4:1]/4,,3h[4:1]/5,,
{16}7,4,6,5,6,5,7,4,6,5,6,5,7,3,6,4,
{24}6b,7,8,2,3,4,6,7,8,2,3,4,
{32}6b,7,8,1,3b,4,5,6,1b,8,7,6,5,,,,
{16}2-6[8:1],,3/4-7[8:1],,2,,4,,8,,1>4[8:1],,4,,5-1[8:1],,,,8<5[8:1]/5,,,,8,,
2h[8:1],,5,3,7,,4,,8-5[8:1],,3qq8[4:1],,8,,3b,,,,7-4[8:1],,,,17,,
3,,1,,56,,8,,28,,2,4,1,,7,5,8-6[8:1],,5-1[8:1],,8,,5,,7,,2-4[8:1],,6,,5-1[8:1],,,,
5/8>3[8:1],,,,8,,4,,56,,7,2,8,,
3b-5[12:1],,4,,6b-2[12:1],,7,,3b-5[12:1],,4,,6b-2[12:1],,7,,
3b-5[12:1],,4,,6b,,6,,3b>7[8:1],,7b<3[8:1],,3b,,,,
7-3[8:1],,5-2[8:1],,7,,5,,1,,8<5[8:1],,5,,4-8[8:1],,,,1>4[8:1]/4,,,,1,,
7h[8:1],,4,6,2,,5,,1-4[8:1],,6pp1[4:1],,1,,6b,,,,2-5[8:1],,,,82,,
6,,8,,43,,1,,71,,7,5,8,,2,4,1-3[8:1],,4-8[8:1],,1,,4,,2,,7-5[8:1],,3,,4-8[8:1],,,,
4/1<6[8:1],,,,1,,5,,43,,2,7,1,,
5b-7[12:1],,8-4[12:1],,5,,1,,2-5[12:1],,5-1[12:1],,2,,6,,8,7,6,5,3,4,3,4,
1b-5[8:1],1b,1b,1b,1b,,,,
7,,1<3[4:1],8,1,,2b,,,,1,,7,,4,,
3h[16:1]/5h[16:1],,2h[16:1]/6h[16:1],,6h[16:1]/4h[16:1],,7h[16:1]/3h[16:1],,
3h[16:1]/5h[16:1],,2h[16:1]/6h[16:1],,
{24}64,3,2,8,7,6,5,4,3,
{16}8-4[8:1],1,2,3,4/8,,,,6-1[8:1],5,6,,2,,
3-5[8:1],,2,1,3,,6,,2-6[8:1],,1,8,2,,8,,
2,,8>6[4:1],1,8,,7b,,,,8,,2,,5,,
6h[16:1]/4h[16:1],,7h[16:1]/3h[16:1],,3h[16:1]/5h[16:1],,2h[16:1]/6h[16:1],,
6h[16:1]/4h[16:1],,7h[16:1]/3h[16:1],,
{24}35,6,7,1,2,3,
{16}4/5b-7[12:1],,3,,1b-5[12:1],,,,6b-8[12:1],,4,,2b-6[12:1],,,,
7b-1[12:1],,5,,3b-7[12:1],,4,,3,,5,5,1,,2,2,
{24}6,7,8,1,2,3,4,5,6,7,8,1,
{16}4,,35,,6,5,6,,
7h[16:1]/4h[16:1],,3h[16:1]/8h[16:1],,2h[16:1]/5h[16:1],,6h[16:1]/1h[16:1],,
7h[16:1]/4h[16:1],,3h[16:1]/8h[16:1],,2-5[8:1]/5,,1/6-3[8:1],,,,,,
1,,4b/2,,6,,5,4,37,,6,,7,6,53,2,7,6,53,2,7,6,53,2,7b,,7,,28,,3,4,3,,7b,,1,,26,,34
,,5,,
2h[16:1]/5h[16:1],,6h[16:1]/1h[16:1],,7h[16:1]/4h[16:1],,3h[16:1]/8h[16:1],,
2h[16:1]/5h[16:1],,6h[16:1]/1h[16:1],,7-4[8:1]/4,,3,,1<6[8:1],,,,5p2[4:1],,,,
8b,7,6,5,4h[4:1],,,,
1h[4:1],,2,,5h[4:1],,4,,7-5[8:1],,8-4[8:1],,7>5[1:1],,8,,
{8}7b,,,,,,1h[4:1],,,,8,8,5h[4:1],,6,,
{16}3,4,3,4,2,4,2,4,1,4,1,4,8,4,8,4,1,5,2,6,3,7,4,8,
{32}4,3,2,1,8,7,6,5,4,3,2,1,78,,,,
{16}5b-7[8:1],,4,3,5,,1,,2/8-4[8:1],,3,,8,,2,,17,,6,5,7,,
5-1[8:1],,8<5[8:1],,5,,8,,1,,8b>6[4:1]/7,,,,8,,7,,7,,7,8,1,2,6,,5,,
7b-5[12:1]/4,,,,8b-4[12:1],,,,1b-3[12:1],,1b,,7b,,
{24}7,6,5,4,3,2,1,8,7,6,5,4,
{16}1-5[8:1],,6,,1,,7,,82,,3,4,2,,
4-8[8:1],,1>4[8:1],,4,,1,,8,,1b<3[4:1]/2,,,,1,,2,,2,,2,1,8,7,4,,
2-5[8:1]/5,,,,26,,8-4[8:1],,3>5[4:1],,8b,,3b,,,,
1b-3[8:1],,2,7,1,,5,,6/4-8[8:1],,7,,4,,6,,53,,2-6[8:1],1,3,,8,,5>2[8:1],,8,,57,,6,,
15,,3,4,2,,7,8,6,,2,1,3,,6,4,
5b-3[8:1],,2,,2,,1b<6[8:1],,1,2,3,4,5,4,37,26,
15,4,1,2,5,4,1,2,5,4,1,2,5,4,1,2,
5,6,2,3,6,5,2,3,7,6,3,4,7,6,3,4,
{24}8,7,6,2,3,4,8,7,6,2,3,4,7,6,5,1,2,3,7,6,5,1,2,3,
{32}6,5,4,3,2,1,8,7,6,5,4,3,2,1,8,7,2b-5[8:1]/6v1[8:1],,,,,,,,
{8}26,,
{24}8,7,6,5,4,3,2s6[24:4],1,8,7,6V83[4:1],5,,,,,,,
{8},,4b,2,1/7h[4:1],,5,26,4,37,1-4[8:1],2,3,,5-8[8:1],7-4[8:1],,,
{16}2b-7[8:1],,4,,2,,6b-3[8:1],,,,16,,2b,,,,34,,4,,6v6[8:1]/2,,,,1,,1,,
3h[4:1],,,,4h[8:1],,5,,3,,5h[8:1],,6-8[8:1],,3-5[8:1],,,,,,
8h[4:1],,6,,5,,4h[8:1],,7,,6,,3/5h[4:1],,,,6,,2h[4:1],,,,3,,7/5-1[8:1],,,,5b,,,,
{24}4,3,2,1,8,7,6,5,4,3,2,1,
{16}2b-6[8:1]/8,,,,2-4[8:1],,4-1[8:1],,2,,5,,5-1[8:1],,8-5[8:1],,5V74[4:1],,,,,,,,
1V38[4:1],,5h[4:1],,1,,,,7,,6-1[8:1],6,4,,2,,
{24}3b,4,,,,,47,36,,,,,25,36,47,5,6,7,
{16}8b>4[4:1],,,,6b,,,,7-3[8:1],,3,,7,,,,
2h[8:1],,4h[8:1],,3,,2,,6h[8:1],,4h[8:1],,7h[8:1],,5,,3h[8:1],,5,,
2h[8:1],,4h[8:1],,3,,2,,6h[8:1],,4h[8:1],,7h[8:1],,5,,
3b-6[8:5],,,,,,,,7b-2[8:1],,,,,,,,
(170)
{1}1b-5[1:5],(165),(140),(110)
{2},(88),,
(90)
{1},,,,,,,
(89)
{4},,,
(100)
3h[4:1],4h[4:1],
5h[4:1],6h[4:1],
7h[4:1],8h[4:1],
{6}1,2,3,4,
{8}5,6,7,8,
{12}1,2,3,4,5,6,7,
