&title=Synthesis.
&artist=tn-shi
&first=0
&lv_5=14+
&des_5=miaow
&inote_5=
(180){8},3h[16:3],{16},5h[16:3],,,4h[16:3],,,6h[16:3],,,,,,1h[16:3],
,,7h[16:3],,,2h[16:3],,,{8}8h[16:3],,,8,
3h[16:3],{16},7h[16:3],,,2h[16:3],,,6h[16:3],,,,,,4h[16:3],
,,8h[16:3],,,5h[16:3],,,{8}1h[16:3],{32},,,,,,,,8,
7,{16}6,{8}3,{16},3h[16:3],,,7h[16:3],,,4h[16:3],,,{8}8h[16:3],
{16},,,,2h[16:3],,,6h[16:3],,,{8}1h[16:3],{16},5h[16:3],,,,,{8}4h[16:3],
{16},3h[16:3],,,2h[16:3],,,1h[16:3],,,,,5h[16:3],
,,6h[16:3],,,{8}7h[16:3],{16},8h[16:3],,,{4}1h[16:3],
{32},,,,1bv3v5v7v1>2>3<4<5<6<7>8>1[4:37],2/8,3/7,4/6,{1},,,,,,,,,{4},,{16},,6,
4,
6,3,6,2bh[8:1]/6h[8:1],,,{8}5h[8:1]/2bh[8:1],{16},4h[8:1]/2bh[8:1],,,3h[4:1]/2b-6[16:1],,,2bx,
,,,,7bh[8:1]/3h[8:1],,,7bh[8:1]/4h[8:1],,,{8}7bh[8:1]/5h[8:1],{16},7bh[8:1]/6h[8:1],,,7h[8:1],
,,4bh[8:1]/8h[8:1],,,{8}7h[8:1]/4bh[8:1],{16},6h[8:1]/4bh[8:1],,,{8}5h[8:1]/4b-8[16:1],4bx,
{16},,,,8bh[8:1]/4h[8:1],,,8bh[8:1]/3h[8:1],,,{8}8bh[8:1]/2h[8:1],{16},1x/8bh[8:1],{32}7x,6x,5x,4x,
3x,2x,{16}1x,{8}7-4[16:1],{16},7bx/2-6[16:1],,,2bx/8-5[16:1],,,8bx/1w5[16:1],,,{8}1bx,
{16},,,,6-1[16:1],,,6bx/4-7[16:1],,,{8}4bx/5-8[16:1],{16},5bx/3>8[16:1],,,{8}3bx,
7-4[16:1],{16},7bx/3-8[16:1],,,3bx/6-1[16:1],,,6bx/2w6[16:1],,,{8}2bx,
{16},,,,5h[16:3],,,4h[16:3],,,{8}3h[4:1],,2h[16:5],
{32},,,,8b,7,{16}6,{32},,1b/7bxh[16:1],2,{8}3,{32}7b/1bxh[16:1],6,{16}5,{32},,2b/8bxh[16:1],3,{8}4,{32}7b/1bxh[16:1],6,{16}5,
{32},,,,,,,,1b/8bxh[16:1],2,{16}3,{32},,7b/8bxh[16:1],6,{8}5,{32}2b/1bxh[16:1],3,{16}4,{32},,8b/1bxh[16:1],7,{8}6,
4bx/5bx,{32}3b/6bxh[16:1],2,{16}1,{32},,5b/2bxh[16:1],6,{8}7,{32}2b/6bxh[16:1],1,{16}8,{32},,6b/3bxh[16:1],7,{16}8,,,4,
4,4,{8}4xh[8:1],,4xh[8:1],,4xh[8:1],,4x-2-8-6-4<4[1:3],
,4bh[1:2],,,,,,,,,,,,,,,,Ch[1:1],
,,,,,,,,,,,,,,,4/5,
4,4,4/2,4,4,4/7,
4,4,4/1,4,4,4/8,4,4/6,
{16}4,5,{8}6,6/4,6,6,6/5,6,6,
6/7,6,6,6/3,6,6/8,{24}6,5,4,3,2,1,
8,7,6,5/1,{48},,,,{16}4,3,4,2,6,5,7,5,2,4,2,4,
7,5,7,5,4,5,4,5,1,2,1,2,8,7,8,7,
8,1,{8}2/7,7/2,6/3,6/3,{24}4x,5,4,5,4,5,4x,5,4,
5,4,5,3b,{4},,,{16},,,{48},{24}8b-5-7[8:1],
1,2,3,4,,{8}8,4v2[12:1],4x,4,{24}7,6,5,
{8}4/1x>4[12:1],4x,1/6,{24}7-4[12:1],6,5,,,,{8}7/3,2,{16}1<6[16:1],2,
1,2,{8}3x-6-1-4[8:3],,3,,7x,{16},,3/8<5[16:1],2,
{8}1,8>3[16:1],,8,{16},,8<5[16:1],4,{8}4,{16}8w4[16:1],2,
{8}2,8b,,5/3-8[16:1],6,3/7-4[16:1],6,{16}7/1-5[16:1],2,
{8}3,1x,,3/6-8-4[8:1],2,6/1-5[16:1],{16},,1/8x-4[16:1],7x,
{8}6x,8/3,3,2,2,1,1,{16}7/8>2-6>4[1:1],8bx/7bx,
,8/1,{8}8bx/1bx,{16},,,,4,4b,,,3,3b,,,{8}3x,
3x-6[16:1],{16}6x,7x,{8}3/8x-3[16:1],1,8/1-5[16:1],2,1,
,3,8<5[16:1],2,1/8,{16}2-5[16:1],6,2,6,{8}2x<7[16:1],
,2w6[16:1],,2b,{16},,6,5,{8}6,{16}4-1[16:1],5,
{8}4,3,{16},,8,8,{8}8,7b/1x-5[16:1],8,1b/7x-3[16:1],
8,7b/1bx-5-2[4:1],,1/6-1[16:1],7,6,{16},,2-6[16:1],3,
{8}4,2/7-3[16:1],,7<3[4:1],{16},,2,1,8,7,6,5,
4,3,{8}2/8,,8,,1b,{16}1bx-6-3-8[4:3],1bx,{8}1bx,
1bx,{4},,,{32}7,6,5,4,
3,2,1,8,{8}7b/3b,,5/6,{16},4,{8}3-8[16:1],2,{16}3,7,
6,5,{8}4<7[16:1],{16},8,{8}4-8[16:1],1,{16}4,2,{8}2-5[16:1],1,
2,1,{16},8,{8}5-2[16:1],8,{32}8/5,7,{16}6,,,{8}1<7[16:1],
5,1>3[16:1],{16},6,{8}1-5[16:1],7,{16}1,8,{32},,,,8xw4[16:1],7x,{16}6x,
{32}4x,3x,{16}2x,{8}8,{16},2x,{8}5x-8[16:1],3,{16}5-2[16:1],4,{48},,,,,,{24}5/8-3[16:1],7,6,
{8}5,8,,5,3,{16}3-8[16:1],4,,4,{8}3-6[16:1],
5,3/5,{16},7,{8}5x<8[16:1],8,{24}1/5,2,3,{8}4,{16}1,5,
1,5,{24}1,8,7,6,5,4,7/3,6,5,4,3,2,{96}8/1,,,7,,,{32}6,5,4,3,2,1,{8}8b/4b,
{16}1,8,{8}1,{16},4,{8}6-1[16:1],7,{16}6,4,,,{8}2-5[16:1],
{16}5,6,{8}2/7-3[16:1],8,7,5,5-1[16:1],{16},7,{8}5/7-3[16:1],
2,1/7,{16},6,{8}8-3[16:1],8,{16}8,6,,,{8}6,
2,{16}2<7[16:1],3,{8}4,{16}2/7-4[16:1],6,{8}5,{16}1/7,2,3,5,{8}3,
3,1,{16},1,{8}7>3[16:1],7,{16}7/6-1[16:1],6x,,,{8}6/3,
{24},,,8,7,6,2-6[16:1],3,4,8-4[16:1],7,6,{8}5/2,8,{16},3,{8}3-7[16:1],
8,{32}8>3[16:1],7,6,5,,,,,{8}8x,{32},,8>3[32:1],7,6,5,,,,,,,4,5,6,7,
8,1,2,3,{8}4b/8b,,8,,8,,8w4[16:1],
,8bs4<7b[8:29]*z4>1b[8:29],{1},,,{4},,,{8},Ch[4:15],
{1},,,{4},,,{8},B7/B6,
,,,E2/E3,{16},E8/E7,,,B2,
B3,{8}B4,{16},B8/B1,,B7/B6,{48},,,,,,{24}B3,B4,{48},,,,,,,,,,,{16}B6,
,,1,7,1,7,1,7,6,5,4,2,3,4,5/8,7,
6,5,4/8,1,2,3,4/5,6,8,7,2,4,3,4,5,6,
7,8,1/5,4,3,2,1,8,7,6,{24}5/1,2,3,4/1,8,7,6/1,{48},{16}2,
3,4,5/2,3,4,5,6/3,4,5,6,7,8,1,6,3,5,
4,6,3,5,4,5,{8}4,{16}7/8,6,5,4,2,4,3,7,
5,6,{8}7/4,{16}4,5,6,7,8,1,2,3,{24}4/8,7,6,5/4,3,2,
{8}1,{16}8/1,7,{8}6,4,{16}4,3,{8}2,{16}7,6,{8}5,
{16}1/4,,,2,{8}3,{16}3,4,,4,{8}5,6/4,{16}7,5,
,8,2,3,{8}4,{16}2,3,4,5,6,7,{8}8/2,1,
2,3/6,{16}5,4,{8}5,4,{16}4,3,2,1,8,7,
{8}6,4,4/3,{16}2,5,{8}1,6,{16}2,7,{8}3,
4/5,5,3/6,3,2/7,7,{16}1,2,3,4,
5,6,{8}7/8,{16},,6,5,6,5,6,5,{8}6,4,
3,{16}2,1,8,7,6,5,{8}4/8,7,6,5,
4,{32}1/8-5>4[2:1],2/7-2[32:15],6/3,5/4,{4},,,{16},,{8}5q4[2:1],
,,,,,,,6-3[2:1],
,,,,,,,2<7-3<6[2:1],
,,,,,,,8-5q4[2:1],
,,,,,E3h[4:1],
,8-5[2:1],,,,B2/B3,,,,4pp4qq4[2:3],
,B6/B5,,B8/B7,,E7/E6,
,A7,,E1,,A6,,A8,
,5/4-1-6<4[2:7],,5,,5,,5,
,5,,5,,5,,5,
,5,,5,,5,,5,
,5,,5,,5,,5,
,3/4-7-2<4[2:7],,3,,3,,3,
,3,,3,,3,,3,
,3,,3,,3,,3,
,3,,3,,3,,3,
,6/2,{16},3,{8}3,5,5/4,,1,
,7/1,{16},8,{8}8,1,1/8,{16},5,{8}5,
2,3/5,{16},6,,,{8}7,7/5,,3,
,4,4,4/5,,3,{16},5,,,{8}6,
6/3,{16},,3,4,5,6,7,8,1,2,3,4,
5,6,{8}7,7,8,1,2,3,4,
5,{24}1,8,1,8,1,8,1,8,1,8,1,8,1,2,3,4,5,6,7,8,1,
2,3,4,5,6,7,8,1,2,3,4,5,{8}6,{16}7v4[16:1]/1v4[16:1],6/2,{8}3/5,1/7,
,7b/1b,{16},7,{8}7/3-8[16:1],4,3/8>4[16:1],{16}7,6,{8}8bx/5-8[16:1],
,5-2[16:1],4,5/8-5[8:1],,8/1,{16},1x,{8}1x-5[16:1],
5,1b/6b,{16},7,{8}7-4[16:1],1,7/1w5[16:1],,1,
,8/2,7/3,6-1[16:1]/4-1[16:1],,6/4,{16},8,{8}8v3[16:1],
1,8,{16},8,{8}4-7[16:1],1,4/2-5[16:1],8,2b/1,
,1<6[16:1],5,1-5[16:1]/4-8[16:1],,1/4,{16},7,{8}7>2[16:1],
6,5/7,{16},5,{8}5-1[16:1],3,5b,{16},,3/8,7/2,
{8}6/1,{24}8,5,8,{8}5,{24}1,4,1,{8}4,{32}8b/1b,7,6,5,{8}4,{32}1b/8b,2,3,4,
{8}5,6,{16},7,{8}7<4[16:1],2,7-3[16:1],3,7b/4<7[16:1],
,4-8[16:1],3,3/4>8[16:1],,6/4,{16},7,{8}7p3[16:1],
8h[8:1],7,{16},1,{8}1>4[16:1],6,{16}6bx/1-5[16:1],7,{8}8,4/1bx,
4,5-1[16:1]/4-8[16:1],6/3,4-2[16:1]/5-7[16:1],,5/4,{16},1,{8}1-5[8:1],
5-7-3[8:1],1,{16},4,{8}4w8[16:1],4,4,,2-6[16:1]/8-4[16:1],
8/2,2b>5[16:1]/8b<5[16:1],,8b/2b,,4-8[16:1],{16},3,{8}4,
3,{16}6,5,6,5,3,4,3,4,7,5,7,5,2,4,
2,4,{32}7/1b,6,5,4,1/3b,2,3,4,8/5b,7,6,5,2/4b,3,4,5,6,7,8,1,2,3,4,5,6,7,8,1,
2bx-7-4-1-6[8:11]`5bx<5b[8:11],3x/6x,4x/7x,5x/8x,{8}6x/1x,{1},{4},,{8},{16}7bx/2bx,
7b/2b,
,6b/3b,{8}6bx/3bx,{32},,1,E2,E3,E4,,,7,E7,E6,E5,,,,,{16}3bx/6bx,5,4,3,
2,1,8,2b/7h[16:7],{4}2bx,{8},1bx,{16}1b,8,7,6,
5,4,{8}3bh[16:1]/1bh[16:1],{16},3h[16:1]/1h[16:1],,,3h[16:1]/1h[16:1],,,3h[16:1],1b,1,{8}8h[4:3],
,,{4}5b,{16}5bx,5bx,{8}5b,{16}8b,8b,,,{8}1b,
2b/5h[2:1],{16},,,,,,,,8b,7,6,5,
4,3,{32}1b/7b,2,3,4,5,6,,,8/2,7,6,5,4,3,,,1bxh,2,3,4,8bxh,7,6bx,5,2bxh,3,4,5,
1bxh,2,3,4,{8}5xh[8:1]/1xh[8:1],{16},6xh[8:1]/1xh[8:1],,,7xh[8:1]/1xh[8:1],,,8xh[16:3]/1xh[16:3],,,,,,1,
8,2,7,3,6,4,3/5xh[8:1],,,2/5xh[8:1],,,{8}1/5xh[8:1],
,4/8xh[8:1],{16},5/8xh[8:1],,,6/8xh[8:1],,,7/8xh[16:3],,,,,,,8,
1,2,3,4/7,6,5,4,{32}3/1x<1[8:3],2x,3x,4x,5x,6x,7x,8x,,,,,,,,,,,,,,,,,{16}6,
5,6,5,2,4,2,4,6,5,
{8}6,{24}8x,7,8,7b,6,5,4,,,1x,2,1,2b,3,4,{8}5,{24}8x,7,8,
7b,6,5,4,{48},{16}3,5,2,4,3,{8}5,{16}8,7,1,6,{24}2,5,3,
{32}4,5,6,7,8,1,2,3,4,5,6,7,8,1,2,3,4,5,6,7,{24}8x,1,8,1x,8,1,8x,1,8,
1x,8,1,8x-2-6[8:1],{48},,,,,,,,,,{16}8/3-7[16:1],4,{8}5,{16}3/7,6,{4}5-1[16:1],
{8}5/8,8>3[8:1],{16},,7/8w4[16:1],6,{8}5,8b,,,,7b/3b,
{16},2b/6b-2[0.4167##0.0833],,,{8}7b/3b,{16}6/2,3,{4}4-8[16:1],
{8}4/1,1<6[8:1],{16},,2/1w5[16:1],3,{8}4,1b,{16},,6,5,
6,5,{32}6bw2[16:1],5,4,3,2,1,8,7,{8}6,{16},,7/3,2,{4}1-5[16:1],
{8}1/4,4<7[8:1],{16},,3/4w8[16:1],2,{8}1,4b,{16},,7,6,
5,4,1bx/8bx,2,3,8b/1bx,7-3[16:1],6,8bx/1bx,2,{8}3b/7b,{16},,6,5,
{8}6,{16}3,4,{8}3,{16}7,8,7,3,5,2,4,1,{32}2,3,4,5,
6,7,8,1,{8}6b/2bw6[8:1],{32},,,,,,,,,,,,8/1,7,6,5,{4}1/4-7[16:1],
{32}4/1-5[16:1],2,3,4,,,,,{8}1,2V86[16:1]*V46[16:1],,2b,{16},,B7,B6,
B5,B4,{8}7b/1b,{16},8b/2b,,,{8}7b/1b,{32}1/8,2,3,4,{4}8/5-2[16:1],
{32}5/8-4[16:1],7,6,5,,,,,{8}8,7V13[16:1]*V53[16:1],,7b,{16},,3,4,
3,4,{32}3w7[16:1],4,5,6,7,8,1,2,{8}3,,1/8,{32}2<7[16:1],3,{16}4,{32},,7,6,
{4}2/5,{32}5/8,1/6,2/7,3/8,{8}4b-1[16:1]/1b-6b[16:1],,4b/1b,{32},,,,,,,,,,,,7b/1b,
2,3,4,,,2b/8b,7,6,5,,,7b/1b,2,3,4,,,{16}2h[16:3]/8h[16:3],,,,,1,
,,2,,,5,5,3,3,6,6,2,2,7,7,
{32}1,8,7,6,1bx/5bx<8q2b[2:7],4b/8b>3q5b[32:111],7b/3b,6b/2b,{4}5b/1b,
E
