&title=Drive Your Heart
&artist=Poppin'Party
&first=0.185
&lv_5=13
&des_5=Ic_
&inote_5=
(150)
E
&lv_6=14
&des_6=Ic_
&inote_6=
(150){4},,,,,,8v3v6[8:5],
2h[8:1],
{8},4h[8:1],,,{4}5p8p3[8:5],6h[8:1],
{8},7h[8:1],,,{4}8-6-4-2[8:11],2h[8:1],
{8},1s5[4:3],{4}1,,,,1/6,
{8}3/5,{16}4,6,,6,{8}4,
7/5,{16}6,4,,4,{8}6,5/3,{16}2,4,,4,{8}2,
2/6,{16}1,7,1,7,{8}1,8/2,{16}3,5,,4,{8}6,
6/4,{16}6,4,,5,{8}3,2/5,{16}2,8,,1,{8}7,
6/8,{16}4,6,4,6,{8}4,3/5,{16}6,4,,4,{8}2,
2/8,{16}1,7,,7,{8}5,{32}8bx/3,7x,{16}6x,{32},,7bx/2,6x,{8}5x,{32}6bx/1,5x,{16}4x,
,4,8,5,1,6,{8}2,{4}3/7-3-1-6[8:5],{8}2,2,
,4,{4}4,4-8-3[2:1],{8}7,7,
,6,6,{16}5,4,{4}6/3-8-6-1[8:5],{8}4,4,
,5,{4}5,6-8v5[2:1],{8}2,2,
,3,3,{16}4,5,{4}6/3-7-5-2[8:5],{8}6,6,
,8,{4}8,8-5-3v6[8:5],{8}4,4,
{16},1,{8}1,{4}2,3-6-4-1[8:5],{8}8,8,
,7,6,7,8h[8:3],{16}1,2,{8}3,4,
{16}5,5,5,5,{4}6/4,{8}5/3,{16}2,4,,6,5,6,
4,6,{8}5,7/4,7/4,{16},,2,4,3,4,{8}2,
{16}1/3,,,2/5,,,{8}1/7,,5-1[8:1],6,5/2-6[8:1],
3,2/7-3[8:1],8,7,5>8[8:3],1,8,7,
,7<5[8:1],7,{16}1/7,2,{4}3,{8}6-3[8:1],3-1[8:1],
{4}1-5[16:3],{8}4,3,2>6[4:1],{16},,,,1,8,
7,,,7h[16:3],,,{8}6-3[8:1],{4}6b,{8}5,{16}4,3,
4,,,1-5-3[4:1]/2-6-8>6[16:11],,,{8}2/1,,,,,{4}7w3[8:1],
7b,{8}4x<1[8:3],,,8xp3[4:1],
,,{4}2xw6[4:3],{2}2bx,
{8},,,,4x>7[8:3],,,1xp4[4:1],
,,{4}6x-2[4:3],{8}6x,,,5x,
,,4x,{16}4,3,{8}5/2,5,1/6,6,
7/2,7,3/8,8,4/7,4,3/6,3,
2/5,2,1/6,1,{16}1,8,1,8,1,8,1,8,
2,7,3,6,4,7,{8}3,{16}8b/2b,,,4b/5b,,,{8}1bh[8:3]/7bh[8:3],
,,,,6b/1b,{16}8-4[8:1],6,,6,{8}8,
7,{16}1-5[8:1],3,,3,{8}1,4,{16}3-7[8:1],5,,5,{8}3,
6,{16}7,8,{8}7,1,2/6,{16}7-3[8:1],8,,8,{8}7,
1,{16}2-6[8:1],1,,1,{8}2,7,{16}8-4[8:1],6,,6,{8}8,
6,{16}3,5,4,5,{8}3,{16}6/2V86[16:3],,,6-4-2[16:3],,,{8}2-8-5[4:1]*-6-4[4:1],
{16},,,,,,,,8>4[16:3],,,4<8[16:3],,,{8}8q6[4:1],
,4,3,2,1/7,{16}6,5,{8}6,2/8,
{16}3,4,{8}3,1/8,2/7,{16}7,8/6,,2,{8}1/3,{16}5/4,4/5,
,3,6,2,7,1,{8}8,2b/8b,{16}8-4[8:1],2,,6,{8}8,
7,{16}6-2[8:1],4,,8,{8}6,8,{16}1-5[8:1],3,,7,{8}1,
7,{16}6,4,{8}6,3,2/5,{16}7-3[8:1],4,,2,{8}7,
2,{16}2-6[8:1],5,,7,{8}2,7,{16}8-4[8:1],5,,3,{8}8,
3,{16}5,4,{8}5,6p4>6[4:3],{4}6,{8}4,4h[4:1],
,,3,2q5<2[4:3],{4}2,{8}5,5h[4:1],
,,4,5,6,{16}1-5[8:1],5,,5,{8}1,
6,7,{16}8-4[32:3],4,8,4,{2}8b,
{8},,2/5h[4:1],3,4,{16}2,1,,4,{8}5,
6/3,{16}7,8,,5,{8}4,6/3,{16}7,4,,2,{8}5,
8/1,{16}2,4,,7,{8}5,7/4,{16}7,5,,5,{8}3,
2/5,{16}2,4,,4,{8}6,7/5,{16}7,1,,1,{8}3,
2/4,{16}2,8,,8,{8}6,7/4,{16}8,2,,2,{8}8,
6/3,{16}2,4,3,5,{8}2,{32}1bx/6,2x,{16}3x,{32},,2bx/7,3x,{8}4x,{32}3bx/8,4x,{16}5x,
1,5,8,3,{4}7pp8-5[4:7],{8}7b,,,B4/B3h[8:11],
,,{4}B1/B2h[1:1],{8},,,,,,,,1-4[2:3],
,,B8/B7h[8:11],
,,{4}B5/B6h[1:1],{8},,,,,,,,8>1-4<5-8[2:3],
,,E3/A3h[8:11],
,,{4}D3/A2h[1:1],{8},,,,,,,,1-6-2-8-4-1b[2:3],
,,E8/E7,
,,{4}E6/E5,{8}7x,,,6x,
,,5x,{16}8,7,{8}6/2,2,3/7,3,
4/8,4,3/7,3,6/2,6,5/1,5,
6/2,6,7/3,{16}6,5,{8}7/4,4,8/2,2,
1/7,7,5/3,3,1/2,2,8/7,7,
6/5,6,4/3,3,5/4,5/4,6/3,6/3,
7/2,7/2,8/1,8/1,1/2,4/3,6/5,8/7,
1/2,7/8,6/5,4/3,{16}6,2,7,4,5,4,5,3,
7,1,5,2,8,3,{8}6,{16}1b>4[32:3]/8b<5[32:3],,,8b-4[32:3]/1b-5[32:3],,,{8}1b/8b,
{32},,,,,,,,,,,,,,,,1x,2x,3x,4x,5x,6x,7x,8x,1x,2x,3x,4x,5x,6x,7x,8x,
5x,4x,3x,2x,1x,8x,7x,6x,5x,4x,3x,2x,1x,8x,7x,6x,1x,2x,8x,7x,1x,2x,8x,7x,1x,2x,8x,7x,1x,2x,8x,7x,
2x,3x,7x,6x,2x,3x,7x,6x,{4}4bx/5bx,{8}2b/6b,{16}7-3[8:1],2,,4,{8}7,
5,{16}5-1[8:1],2,,8,{8}5,7,{16}6-2[8:1],1,,3,{8}6,
4,{16}5,1,4,8,{8}3,{16}6/2p5[16:3],,,5-3-1[16:3],,,{8}1<7-4[4:1]*-6-4[4:1],
{16},,,,,,,,8>4[16:3],,,4p6[16:3],,,{8}6p8[4:1],
,4,3,2,1/7,{16}3,4,{8}3,2/8,
{16}6,5,{8}6,1/8,2/7,{16}7/5,7/5,,4/2,{8}2/4,{16}8/1,1/8,
,5,2,7,4,8,{8}3,1b/6b,{16}8-4[8:1],6,,2,{8}8,
1,{16}1-5[8:1],7,,3,{8}1,4,{16}4-8[8:1],6,,2,{8}4,
1,{16}7,8,{8}7,6,3/5,{16}3-7[8:1],6,,8,{8}3,
1,{16}1-5[8:1],6,,4,{8}1,3,{16}2-6[8:1],5,,7,{8}2,
8,{16}8,5,{8}8,4p2<4[4:3],{4}4,{8}7,7h[4:1],
,,8,8q3<8[4:3],{4}8,{8}3,3h[4:1],
,,4,3,2,{16}1-5[8:1],7,,3,{8}1,
8,{16}8-4[8:1],6,,2,{8}8,2,{16}3,5/3,,6,{8}6/4,
{16}2,7,3,6,{8}4,7,2/7,{16}8-4[8:1],1,{8}7,8,
1,{16}1-5[8:1],8,{8}2,1,6,{16}6-2[8:1],4,{8}8,6,
3,{16}3-7[8:1],5,{8}1,3,8,1/8,{16}5,4,{8}5,
{16}2,6,4,8,3,7,1,5,{2}6bh[4:3]/3bh[4:3],
{8},,,,2/8,{16}6-2[8:1],3,,3,{8}6,
5,{16}5-1[8:1],8,,8,{8}5,7,{16}7-3[8:1],2,,2,{8}7,
2,{16}1,4,{8}1,5,3/7,{16}1-5[8:1],7,,3,{8}1,
8,{16}8-4[8:1],6,,2,{8}8,3,{16}3-7[8:1],5,,1,{8}3,
8,{16}8,6,{8}8,5,1/6,{16}7-3[8:1],4,,2,{8}7,
1,{16}1-5[8:1],4,,6,{8}1,8,{16}8-4[8:1],5,,3,{8}8,
2,{16}2-6[8:1],5,,5,{8}2,7,{16}7-3[8:1],4,,4,{8}7,
5,{16}5-1[8:1],2,,8,{8}5,7,{16}6,8,,3,{8}1,
{16}8,4,7,3,6,2,{8}5,6/2,{16}1-5[8:1],8,2,8,{8}1,
6,{16}8-4[8:1],1,7,1,{8}8,2,{16}2-6[8:1],1,3,8,{8}2,
7,{16}7-3[8:1],8,6,1,{8}7,1,{16}1-5[8:1],5,3,7,{8}1,
8,{16}8-4[8:1],4,6,2,{8}8,2,{16}2-6[8:1],6,4,8,{8}2,
7,{16}7-3[8:1],3,5,1,{8}7,8,{16}8-4[8:1],4,2,6,{8}8,
6,{16}7,3,6,2,{8}5,{16}1b/4b,4b/1b,,5b/8b,{8}8b/5b,{16}2b/7b,2b/7b,
,,6,3,7,4,{8}8,{2}1bw5b[2:3],
{1},{4},{16},,,1,
7,3,{8}5,
E
