&title=Linear Accelerator
&artist=THE SHAFT
&first=-0.02
&des=
&des_5=THE CORE
&lv_5=14
&clock_count=4
&demo_seek=41.979
&demo_len=28.804
&inote_5=(200){1},
{8}4,4,4,4,4,4,4,4,
4,4,5,5,3,3,6,6,
2,2,7,7,1,1,8,8,
1x,1x,2x/8x,2x/8x,7x/3x,7x/3x,6x/4x,6x/4x,
5,5,5,5,5,5,5,5,
5,5,4,4,6,6,3,3,
7,7,2,2,8,8,1,1,
8x/2x,8x/2x,8x/2x,8x/2x,3-8[8:1],7-4[8:1],{32}3<4q6<7b[2:5],E3,{16}B2,{32}7>8q2>3b[8:19],E7,{16}B6,
{1},,{4},,,B7h[8:1]/B3h[16:3]/Cfh[4:1],
{2},{8}6/5,6/5,{16}7,6,5,4,
1,2,3,4,1,8,7,6,{8}5/1,7/3,{4}3h[8:1]/7h[8:1],
{2}2-7[8:1]/6-3[8:1],{16}8,1,2,3,4/5,6,7,8,
{8}1/2,2/1,6/5,5/6,{2}7v4[8:1]/3v8[8:1],
{2}2-5[8:1]/6-1[8:1],{8},5/1,{4}7h[8:1]/3h[8:1],
{8}5,6h[8:1],{32}5x,4x,3x,2x,{8}1xh[8:3],8,8,{4}6h[4:1],
{16}2b,3,4,5,3b,4,5,6,4b,5,6,7,5b,6,7,8,
{8}1x/5x,1x/5x,1x/5x,8x/4x,7/3,6/2,5/1,8/4,
{4}7V14[4:1]/3V58[4:1],,,{16}2,3,4,5,
8,7,6,5,8,1,2,3,{4}4h[8:1]/8h[8:1],6h[8:1]/2h[8:1],
{2}7-2[8:1]/3-6[8:1],{16}1,8,7,6,5/4,3,2,1,
{8}8/7,7/8,3/4,4/3,6-1-7-4[8:3]/2-5-3-8[8:3],{4}6/2,
{2},{8},8/4,4/8,{4}2h[8:1]/6h[8:1],
{8}4/8h[4:3],4,{4}6,{8}1,1,{4}3h[4:1],
{16}7b,6,5,4,6b,5,4,3,5b,4,3,2,4b,3,2,1,
{8}8x/4x,8x/4x,8x/4x,4x/8x,4/8,4/1,4/2,4/3,
{2}5h[8:3]/2V48[4:1],{8}7V51[4:1],2,{4}2,
{16}4x,3x,2x,1x,5x,6x,7x,8x,{8}1xh[8:1],2h[8:1],3h[8:1],4h[8:1],
{2}5w1b[8:1],{16}3x/7xh[2:1],4x,5x,6x,,8x,1x,2x,
{4}3x-5V73[8:3]*-1V73[8:3],,,{16}2x,4x,{8}2x,
7V51[4:1],7,4,4,2V48[4:1],2,5,5,
6V84[4:1],6,1,1,3V15[4:1],3,8,8,
{16}6b,7,8,1,5b,4,3,2,7b,8,1,2,4b,3,2,1,
{8}6x-1[8:1],6x,2x-5[8:1],2x,7x-4[8:1],7x,3x-8[8:1],3x,
{2}5-8[8:1]*-2[8:1],1-4[8:1]*-6[8:1],
{16}5x,6x,7x,8x,4x,3x,2x,1x,{8}8xh[8:1],7h[8:1],6h[8:1],5h[8:1],
{2}4w8b[8:1],{16}6x/2xh[2:1],5x,4x,3x,,1x,8x,7x,
{4}6x-4V26[8:3]*-8V26[8:3],,,8bxh[4:1]/4bxh[4:1],
,3-8[8:1]/7-4[8:1],,1bxh[4:1]/5bxh[4:1],
{8},1-5[8:1],1,6-3[8:1],6,2-7[8:1],{4}2,
{16}4bx,5,6,7,8/5bx,4,3,2,1/5bx,6,7,8,1/4bx,3,2,1,
{2}8bx/Cfh[2:1],{64}B3/B7,,B2,B6,B1,B5,E1,E5,{16},,,,,,
{16}2,4,3,4,{8}1,{16}7,5,6,5,{8}8,3-7[8:1],5-1[8:1],
,5h[64:1],2,3,4/8,7,{32}5x,4x,3x,2x,1x,8x,7x,6x,
{2}5x-8[8:1]*-1[8:1],{8},6x/2x,{32}4x,5x,6x,7x,8x,1x,2x,3x,
{2}4x-1[8:1]*-8[8:1],{4}6bx/5bx,7h[8:1]/4h[8:1],
{16}8,5,7,4,{8}6,{16}1,4,2s6[4:1],5,{8}3,,,7-1[8:1],
7,3-5[8:1],3,6-2[8:1],6,4,4,
{2}5x-8[8:1]*-1[8:1],{8},6h[8:1]/2h[8:1],{16},,4x,4x,
{2}4x-1[8:1]*-8[8:1],{4}6bx/5bx,7h[8:1]/4h[8:1],
{16}7,5,6,5,{8}8,{16}2,4,3,4,{8}1,6-2[8:1],4-8[8:1],
,4h[64:1],7,6,5/1,2,{32}4x,5x,6x,7x,8x,1x,2x,3x,
{2}4xV68[4:1]*V28[4:1],{8},6b/2b,,,{2}5x-8[8:1]*-1[8:1],
{4}3bx/4bx,2h[8:1]/5h[8:1],
{16}1,4,2,5,{8}3,{16}8,5,7z3[4:1],4,{8}6,,,2-8[8:1],
2,6-4[8:1],6,3-7[8:1],3,5,5,
{1}4xV68V24b[2:1]*V28V64[2:1],
{24}8bxh,1x/7x,2x/6x,3x/5x,{3}4xh[24:5],{4}5b-1[8:1],{32}3x>3-1<8<7-5>4>3>2<1-7<6>5-3p7p3-7-3b[1:5],B5,C,B1,,,,,
{1},,,,,{4}Ch[4:3],,,(211.9)B6/B2/B7/B3,
{2}1xh[4:1]/2xh[4:1],6h[4:1]/5h[4:1],
8h[4:1]/7h[4:1],{4}3/4,{8}1-5[8:1],6,
{4}1b,{8}7-3[8:1],2,{4}7b,{8}2-6[8:1],1,
{4}2b,8-4[8:1],{2}3b,
4xh[4:1]/3xh[4:1],7h[4:1]/8h[4:1],
5h[4:1]/6h[4:1],{4}2/1,4h[8:1]/7h[8:1],
{16}4b,3,2,1,8/4b,5,6,7,8/3b,2,1,8,7/4b,5,6,7,
{2}8h[4:1]/3h[4:1],6h[4:1]/5h[4:1],
8xh[4:1]/7xh[4:1],3h[4:1]/4h[4:1],
1h[4:1]/2h[4:1],{4}6/5,{8}8-4[8:1],3,
{4}8b,{8}2-6[8:1],7,{4}2b,{8}7-3[8:1],8,
{4}7b,1-5[8:1],{2}6b,
5xh[4:1]/6xh[4:1],2h[4:1]/1h[4:1],
4h[4:1]/3h[4:1],8h[4:1]/7h[4:1],
{16}2x,1,{8}2,{16}6x,5,{8}6,{16}3x,4,{8}3,{16}7x,8,{8}7,
{16}1b,2,3,4,1b/5,8,7,6,1b/5,2,3,4,{32}1b/5x-1b[8:1],6x,7x,8x,1x,2x,3x,4x,
5x,B5,Cf,B1,,,,,{8}8-4[8:1],8,1-5[8:1],1,6-1[8:1],6,
3-7[8:1],3,5-8[8:1],5,1-4[8:1],1,6-1[8:1],6,
2-5[8:1],2,7-2[8:1],7,3-6[8:1],3,7-4[8:1],7,
1-4[8:1],1,6-1[8:1],6,3-8[8:1],3,7-4[8:1],7,
2,2x,2,2x,2/4bh[8:1],2,2/1bh[8:1],2,
6,6x,6,6x,6/5bh[8:1],6,6/8bh[8:1],6,
3,3x,3,3x,3/1bh[8:1],3,3/4bh[8:1],3,
7,7x,7,7x,7/8bh[8:1],7,7/5bh[8:1],7,
1-5[8:1],1,8-4[8:1],8,3-8[8:1],3,6-2[8:1],6,
4-1[8:1],4,8-5[8:1],8,3-8[8:1],3,7-4[8:1],7,
2-7[8:1],2,6-3[8:1],6,2-5[8:1],2,8-5[8:1],8h[16:1],
3-8[8:1],3,6-1[8:1],6,2-5[8:1],2,7-2[8:1],7,
4bx,4,4x,4,4/2bx,2,2x,2,
2/8bx,8,8x,8,8/6bx,6,6x,6,
6/4bx,4,4x/3bh,4,4x/5bh,4,4x/2bh,4,
4x/6bh,4,4x/1bh,4,4xh[16:1]/7bh,4h[16:1],8bv5<7b[16:5]/4xv1>3b[16:5],4,
{1},
{1},
{1},
{1},
E
