&title=[合]Credits
&artist=Frums
&first=0
&des_7=?
&lv_7=?
&des=?
&inote_7=(179){1},
{1}2h[1:2],
{8},,,4h[2:1],,,,,
{1}4h[1:2],
{8},,,5h[2:1],,,,,
{1}5h[1:2],
{8},,,7h[2:1],,,,,
{1}7h[1:2],
{8},,,5h[2:1],,,,,
{8}5h[1:2],,,6,,,6,,
{8}6,,,6h[2:1],,,,,
{8}6h[1:2],,,5,,,5,,
{8}5,,,5h[2:1],,,,,
{8}5h[1:2],,,4,,,4,,
{8}4,,,4h[2:1],,,,,
{8}4h[1:2],,,3,,,3,,
{8}3,,,3h[2:1],,,,,
{8}3h[8:3],,,4,3h[8:3],,4h[4:1],,
{8}3h[8:3],,,4h[2:1],3h[2:1],,,,
{8}5h[8:3],,,4,5h[8:3],,4h[4:1],,
{8}5h[8:3],,,4h[8:5],5h[8:3],,,,
{8}6h[8:3],,,5,6h[8:3],,5h[4:1],,
{8}6h[8:3],,,5h[2:1],6h[2:1],,,,
{8}4h[8:3],,,5,4h[8:3],,5h[4:1],,
{8}4h[8:3],,,5h[8:5],4h[8:3],,,,
{8}3,4,5,6,6,5,4,3,
{8}3,4,5,6,7,7,7,7,
{8}3,6,6,6,4,5,5,5,
{8}3,4,3,4,2,2,2,2,
{8}3,4,5,6,6,5,4,3,
{8}2,4h[4:1],,7,5h[4:1],,7,5h[4:1],
{8},7,5h[4:1],,7,5h[4:1],,7,
{8}5h[4:1],,7,5h[4:1],,7,5h[4:1],,
{8}3,4,5,6,6,5,4,3,
{8}3,4,5,6,7,7,7,7,
{8}3,6,6,6,4,5,5,5,
{8}3,4,3,4,2,2,2,2,
{8}3,4,5,6,6,5,4,3,
{8}2,4h[4:1],,7,5h[4:1],,7,5h[4:1],
{8},7,5h[4:1],,7,5h[4:1],,7,
{8}5h[4:1],,7,5h[8:3],,,4,,
{16}3,,4,3,,4h[16:3],,,3,,4,3,,4h[16:3],,,
{16}3,,4,3,,4h[16:3],,,3,,4,3,,6,5,6,
{16}3,,4,3,,4h[16:3],,,3,,4,3,,4h[16:3],,,
{16}3,,4,3,,4h[16:3],,,3,,4,3,,6,5,6,
{16}2,,4,3,,6,5,,2,,4,3,,6,5,,
{16}2,,4,3,,6,5,,2,,4,3,,6,5,,
{16}2,,4,3,,6,5,6,2,,4,3,,6,5
,6,
{16}3,4,3,6,5,6,3,4,3,6,5,6,2,,,
,
{16}1,8,1,8,,1,,8,1,8,1,8,,1,,8,
{16}1,8,1,8,,1,,8,1,8,1,8,1,8,1,8,1,
{16}8,1,8,,1,,1,8,1,8,1,,1,,8,
{48}1,,,8,,,1,,,8,,,,,,1,,,,,,8,,,1,,,8,,,1,,,8,,,1,2,3,4,,,,,,,,,
{16}1,1,1,1,1,1,1,1,1,1,1,1,1,1,1,1,
{16}1,1,1,1,1,1,1,1,1,1,1,1,1,1,1,1,
{16}1,1,1,1,1,1,1,1,1,1,1,1,1,1,1,1,
1,1,1,1,1,1,1,1,1,1,1,,
{4}2<7[1:8],
{1}7b,,,,,,,,
{8}2h[1:2],,,4,,,4,,
{8}4,,,4h[2:1],,,,,
{8}4h[1:2],,,5,,,5,,
{8}5,,,5h[2:1],,,,,
{8}5h[1:2],,,7,,,7,,
{8}7,,,7h[2:1],,,,,
{8}7h[8:11],,,2,,,2,,
{2}2h[8:3],3b-6[91648#1:16],
{1},
{1},
{1},
E
