&title=Ωκεανος
&artist=cosMo@暴走P
&first=0
&des=/抓水母
&lv_5=14
&inote_5=(196)
{1},
{1},
{16}1bx^6v4[16:20],8bx^3v5[16:19],,,
{2},
{4},
{1},
{4}3,
2,
2,
2,
{4}2,
2,
2,
2,
{4}7,
8,
8,
8,
{4}2,
1,
1,
1w5[8:1],
{4}1,
7,
16,
2,
{4}7,
8,
16,
2,
{4}4h[4:1],
1,
83,
7,
{4}5h[4:1],
8,
3h[4:1],
8,
{4}2b/7b,
{8}3,4,
3,5/2-5[8:1],
{4},
{8},7,
6,5,
1,2,
{4}34,
{8}6,5,
6,4/7-4[8:1],
{4},
{8}3,2,
{8}1,8,
2,7,
{2}1-4[8:1]/8,
{8}6,5,
6,2,
3,2,
8,7,
{8}6,2,
3,4,
6,5,
4,3,
{4}2/7-4[8:1],
{8}5,1-4[8:1],
,3,
{4}8-5[8:1],
{8}6,2-6[8:1],
,C/2,
{16}A7,E8,E1,A1,
A5,E5,E4,A3,
{16},,8x,7,
6<5[16:8],5,34,,
{2},
{16},,2x,3,
4h[16:4],,8x,7,
{4}6-8[8:1]*-4[8:1],
6,
{4}3-8[8:1],
{8}1,7-4[8:1],
,5,
{4}3>7[4:1],
{2}7-5-2[4:1],
{4},
{8}8,7,
{4}6-1[8:1]/2,
46,
5-2[8:1]/8,
65,
{16}5h[16:2],,8x,1,
2,3,4,5,
{8}7-3[8:1],8,
{4}7,
{16}1b/5b,,,4h[16:2]/6h[16:2],
{8},2h[8:1]/8h[8:1],
,3,
46,7,
{16}18,,2,4,
2,4,2,4,
{12}3,7,5,
6,2,4,
{1}3qq1<6q4[2:3],
{1}C,
{1}6pp8>3p5[2:3],
{1}C,
{1}1^7qq6b[16:24]*^3pp5b[16:24],
{1}C,
{2}1^6[2:1],
6>8[2:2],
{1}C,
{4}4pp6[4:2],
3,
2,
1,
{4}5qq3[4:2],
6,
7,
8,
{1}4pp5[2:1]/1<5[2:1],
{4}4pp6[4:2],
3,
2,
1,
{4}5qq4[4:2],
6,
7,
8,
{2}1-5[8:1]/5,
{16}3h[32:1],,6,7,
{4}8>4[4:1],
{4}4<8[4:1],
1,
{8}2,2-5[8:1],
1,2,
{16}8,7,6h[16:2],,
,,2,3,
{8}4,4,
{4}8b-4[8:1],
{4}3h[8:1],
2h[8:1],
15,
68,
{16}7h[16:2],,5,4,
3,2,1,8,
{4}7-4[8:1],
7b/4,
{8}2-6[8:1],1,
2,8-4[8:1],
4-7[8:1],8,
{4},
{8}2,38,
7,26,
{16}3,5,3,5,
{8}3,7,
{16}7h[16:2],,2,1,
8,7,6,5,
4h[16:2],,7,8,
1,2,3,4,
{16}1b/5,,,3h[16:2]/6h[16:2],
{8},5h[8:1]/7h[8:1],
,1,
28,37,
{16}46,,3,5,
2,5,1,5,
8,5,7,5,
{4}6<4[4:1],
{4},
{2}8b,
{16}4>6[16:6]/8,73,62,51,
{4}4x/8,
{16}4,3,2,1,
{4}8,
{16}4h[16:3],,,1,
{24}5-2[24:3],6,7,8,,,
{4}5-8[8:1],
5,
{16}1b,,2,4,
{8}3,3,
{16}7,5,6,,
{8}6-1[8:1],2-5[8:1],
6,2,
{16},,8,7,
6,4,3,2,
{8}8-4[8:1],1-5[8:1],
8,1,
{4}7w3[8:1],
7b,
{16}1,,6,5,
7,,3,4,
{16}1-5[16:1],,,5-1[16:1],
{8},7,
{4}7-3[8:1],
2b,
{16}1,5,1,5,
2,6,2,6,
3,7,3,7,
4,8,4,8,
{16}4b-1[16:1],,,7b-4[16:1],
{8},2b,
{4}2-6[8:1],
6^1[8:1]/2-5[8:1],
{4}2,
3^8[8:1]/7-4[8:1],
37,
{16}2h[16:3],,,5,
{16}1,2,3,4,
6,7,8,1,
5,4,3,2,
{4}1q5[8:1]/5q1[8:1],
{4}1/5>6[16:5],
{8},7x,
{16},5bh[16:2],,,
4bh[16:2],,,7b/2b,
{16},,1,2,
3,5,6,7,
{8}1-5[8:1],8-4[8:1],
1,8,
{4}2-6[8:1],
2/5^8[8:1],
3^8[8:1]/5,
37,
{16}5-1[16:2],,,1,
{8}5,2,
{4}2^5[8:1],
2/6b,
{16}7,8,7,8,
7,8,7,8,
7,6,5,4,
1,2,3,4,
{8}7-4[8:1],3v8[8:1],
7,3,
{4},
{16}5<3[16:6]/1,26,37,48,
{4}5x/1,
{16}5,6,7,8,
{4}1,
{16}5h[16:3],,,8,
{24}4^7[8:1],3,2,1,,,
4^1[24:3],,,,,,
{4}4-8[8:1],
{16}4,,,,
{8}3h[8:1],6h[8:1],
{16}2,4,2,4,
{8}3bv8[8:1],7b^4[8:1],
3b,7b,
{16},,2,5,
3,6,4,7,
{8}5b-1[8:1],8b-4[8:1],
5b,8b,
{4}2w6[8:1],
2b,
{16}8,,3,4,
2,,6,5,
{16}8-3[16:1],,,83,
{8},1^4b[8:1],
{2}5^8b[16:1],
{16}3,7,3,7,
1,5,1,5,
2,6,3,5,
2,6,3,5,
{16}1b-5[16:1],,,7b-4[16:1],
{8},2b,
{4}2-6[8:1],
2^5[8:1]/6-1[8:1],
{4}2,
3^8[8:1]/7-4[8:1],
37,
{16}2h[16:3],,,5,
{16}1,2,3,4,
51,8,7,6,
51,2,3,4,
{4}1p5[8:1]/5p1[8:1],
{4}1/5<4[16:5],
{8},3x,
{16},5b-2[16:1],,,
8b-5[16:1],,,1b,
{16},,2,6,
3,7,4,8,
{4}5w1[8:1],
5b,
{4}7-4[8:1]/3-8[8:1],
3b/7b,
{8}2b-6[8:1],2,
4b-7[8:1],4,
{8}1b-5[8:1],1,
8b-4[8:1],8,
{4}3b,
2/7b,
{16}1b,8,1,8,
1,8,1,8,
1,2,37,6,
52,3,48,7,
{2}1s5[4:1]/6,
{8},1^6[16:3],
7^4[16:3],5^2[16:3],
{2}3b,
{8}8,7,
61,6,
{8}2,3,
48,4,
{16}E8,B8,B1,E2,
E6,B5,B4,E4,
{8}7,6,
{16}3,4,2,,
2,,6,5,
{8}7,7,
{8}18,2,
38,7,
62,3,
47,6,
{8}51,2,
3,5,
6,7,
{4}18,
{4}2/6b,
{8}35,3,
75,7,
25,2,
{16}8,4,8,4,
8,4,8,4,
8,7,6,5,
4,3,2,1,
{16}8-4[16:1],,,2-5[16:1],
{8},7-4[16:1],
{16},1-5[16:1],,,
{4}8b,
{16}2h[16:2],,7,1,
7,3,5,3,
5b,6,7,8,
2b,3,4,5,
{16}7h[16:2],,4,6,
4,8,2,8,
2b,3,4,5,
8b,7,6,5,
{16}1b,2,3,4,
5b,6,7,8,
1b,8,2,7,
3,6,4,5,
{4}36,
{16}2,4,2,4,
3,5,3,5,
4,6,4,6,
{4}1>5[4:1],
{16}15,6,7,8,
1,2,3,4,
{4}5,
{4}7<3[4:1]/3,
{16}37,2,1,8,
7,6,5,4,
{4}3,
{16}5/1>5[16:4],6/2>6[16:4],3<7[16:4]/7,4<8[16:4]/8,
{4}5<1[4:1]/1,
1>5[4:1],
5,
{12}3x,2x,1x,
5,4,3,
7,6,5,
1,8,7,
{4}6/2b,
4,
53,
6,
{4}3,
4,
53,
6,
{4}2,
4,
53,
6,
{4}1,
4,
52,
{12}4,5,6,
{4}37,
8,
16,
2,
{4}7,
8,
16,
2,
{4}5,
17,
34,
28,
{16}3h[16:2],,8,2,
6h[16:2],,2,8,
4h[16:2],,7,1,
5h[16:2],,1,7,
{32}3bqq1<5q2[32:224],3!pp5<1p4[32:224],,,,,,,
{2},
{4},
{1},
{1},
{1},
{1},
{1},
{1},
{1},
{2},
{32}6xpp8>4p7[32:224],6!qq4>8q5[32:224],,,,,,,
{4},
{1},
{1},
{1},
{1},
{1},
{1},
{1},
{2},
3h[16:19],
{8},
,7h[16:7],,,
{16},,46,5,,,,
