&title=石头歌
&artist=三无Marblue
&first=0
&des=[X]
&wholebpm=50
&clock_count=4
&lv_5=13
&des_5=[X]
&inote_5=(50){4},,,,8h[8:1]/1>1V35V71[8:5],
7h[8:1],6h[8:1],E5h[8:1],
1h[16:3]/5xh[8:3],{8}8h[16:1],{16}7,7,{4}7h[8:3]/4h[16:3],{8}3h[16:1],{16}1-3[32:1],2,
{8}5xh[16:1],E5h[16:1]/1-7[32:1],6h[16:1],E5h[16:1]/1>3[32:1],7xh[16:1],1/E5h[16:1],{32}4h[16:1],,,8x,{16}E5h[16:1]/8x-6[32:1],7,
{8}3h[32:3],{16}8>2[32:1],5,{8}4h[16:1],E5h[16:1]/8<6[32:1],1xh[16:1],8/E5h[16:1],{32}6h[16:1],,,2,{16}E5h[16:1]/2-4[32:1],1,
{8}1/5xh[16:1],E5h[16:1]/2-8[32:1],3/6h[16:1],E5h[16:1]/2>4[32:1],1/7h[16:1],2/E5h[16:1],{32}4/8xh[16:1],,,2,{8}2/E5h[16:1],
3h[16:1]/5<5[32:7],E5h[16:1],{16}4x,4x,6x,6x,{32}E8,E2,E6,E4,B7,B2,B5,B4,7x,2x,5x,4x,7V16[16:1],2,5,3,
{8}8xh[16:1]/B3/B2,E5h[16:1]/7V58[16:1],6h[16:1]/B3/B2,E5h[16:1]/7-2-8b[16:1],8xh[16:1]/B3/B2,7/E5h[16:1],2h[16:1]/B7/B6,E5h[16:1]/1V38[16:1],
2xh[16:1]/B7/B6,E5h[16:1]/1V72[16:1],8h[16:1]/B7/B6,E5h[16:1]/1-4-2b[16:1],2xh[16:1]/B7/B6,1/E5h[16:1],{32}6,3,7,2,E5h[16:1]/8x-6-8[16:1],8x,,,{16}1/3xh[16:1],
2,{8}E5h[16:1]/8-2-8[16:1],{16}7/3xh[16:1],6,{8}E5h[16:1]/8-5-8[16:1],{16}7/2xh[16:1],6,{8}8/E5h[16:1],{16}1/2h[16:1],{32}8,8,{8}E5h[16:1],
{16}3/1q1q1b[4:1],3,{8}E5h[16:1],3h[16:1],3h[16:1],{32}4x,8x,2x,1x,4,5,7,4,5q6p5b[4:1],2,{16}4x,4,3,
{8}4h[16:1]/5-8[16:1],{16}4x-2[32:1],4,3xp2q3b[4:1],3,{8}4x/7x,6h[16:1]/3-8[16:1],{16}6x<8[32:1],6,5xv7<5pp5b[4:1],5,{8}6x/4x,
3h[16:1]/5p1[16:1],{16}3x>8[32:1],3,4x,4,{8}3x/7x,2h[16:1]/4-6b[32:1],7h[16:1]/5-3b[32:1],5h[16:1]/4b<4b[4:1],5b/4h[16:1],
6xh[16:1]/4x<7-4[8:1],{16}6x-1[32:1],5x,7x>3>7b[4:1],8x,{8}6x,5h[16:1]/7p4[8:1],6xh[16:1],{16}5,5,{8}C,
{16}3/5p5b[8:1]`5?p5p5[4:1],3,{8}E5h[16:1],3h[16:1],3h[16:1],{16}2,2/6,7,7/3h[16:1],,2/6,{8}3/7h[16:1],
{16}8>4>8b[16:3],6/2,{8}7/2h[16:1],{16}5p6p5b[4:1],5,{8}6h[16:1],{16}5-8[16:1],2,4-2[32:1],4,3p4p3b[4:1],3,{64}7bx/4,6x,{32}5x,,,{8}6h[16:1]/3-8[16:1],
{16}6<8[32:1],6,5pp5pp7<5[4:1],5,{64}1bx/6,2x,{32}3x,,,{8}3h[16:1]/5p1[16:1],{16}3>8[32:1],3,4,4,{64}7bx/3,6x,{32}5xh[32:1],,,{16}3/4x-8b[32:1],
6,6/5x-1b[32:1],3,3x/4bx<4b[4:1],6x,5bx/6x,2x,{8}6xh[16:1]/4x<7-4[8:1],{16}6x-1[32:1],5x,7xq5<7q5<7b[4:1],8x,{8}6x,
5h[16:1]/7qq1[8:1],4xh[16:1],{16}3,2,{8}C,{16}3x/4xV26[8:1],5x,7x/6xV84[8:1],5x,{8}4/3h[16:1],3h[16:1],
{16}1h[16:1],C,3/7h[16:1],C,5/4h[16:1],C,8h[16:1]/2-4-2[16:1],C,{8}1h[16:1],{16}6/2-8-2b[16:1],6,3h[16:1]/B6/B5,C,{8}2/5-7-5[16:1],
1h[16:1],{16}2/5-3-5b[16:1],2,6h[16:1]/B2/B1,C,{8}5/2q5[8:1],3h[16:1],{16}2/6,7,{8}8-4-7b[16:1],{16}6/2-6-3b[16:1],1,
{8}8bx/1b,2bx/7b-4<8[8:1],6bh[16:1]/2h[16:1],7bx/2b-6[32:1],3h[16:1],{16}2/8-5[32:1],7,7/3h[16:1],6,{8}8/1-4[32:1],
{16}2/8,7V15[8:1],1/8,6,6/4>2-6<8-4[4:1],7x,{8}3h[16:1],1h[16:1],3h[16:1],{16}1p1p1[4:1],2,{8}5h[16:1],
7h[16:1],7h[16:1],{16}5,6/2,4,7/3,{4}2h[8:1]/5>5V31V75[8:5],4h[8:1],
1h[8:1],E5h[8:1],{8}7/5>5[16:3],2h[16:1],{16}1x,1x,{8}3x,
{4}E5h[8:1],E5h[8:1],{8}E6,E5,E4,{16}E3/E7,E5,
E
