&title=Paradigm
&artist=Leslie Wai
&first=3.157
&des=Kaizo Trap
&lv_5=14
&inote_5=(130)
{8}
5h[8:4]/4,,,,3h[8:3],,,2>7[8:5],
,,,8h[8:4],,,,,
5h[8:3],,,6h[8:2],,,,7<2[8:5],
,,,,1h[8:2],,,,
4h[8:4],,,,3h[8:3],,,2>7[8:5],
,,,B7,B8,B1,B2,B3,
5h[8:4],,,,6h[8:3],,,7<2[8:5],
,,,B2,B1,B8,B7,B6,
5x,,5<2<5[8:10],,4,,4,,
3,,3,,4>2[12:1],,,,
4,,4>7>4[8:10],,5,,5,,
6,,6,,5<7[12:1],,,,
5,5,4,4,5,6,4,3,
5,6,7,8,4,3,2,1,
{16}5,4,6,3,7,2,8,1,8,1,7,2,6,3,5,4,
5bh[8:4],,2x,3x,4x,,8x,7x,6x,,1,2,3,,7,6,
{8}5b-8-2-4-6-1-3-5<7>8>1>2>3<4b[8:21]/Cf,,,,,,,,
,,,,,,,,
7>2[8:3],,1>4[8:3],,3<5[8:2],,5<8[8:2],,
8>3[8:2],,3<6[8:2],,6<1[8:2],,1>5[8:2],,
5<1[8:2],,1>5[8:2],,5<1[8:2],,1>6[8:2],,
6<3[8:2],,3<8[8:2],,8>5[8:2],,5<2[8:2],,
2-4-6-8-2q5[8:5],,,,,,,,
{16}8xz4[8:1],,17,17,,,,,28,,1,1,2x>7b[8:2]/8x,,7,7,
{24}A2f/8x,,,,,,2-8[12:1],3,4,5,6,7,
{16}2-4[12:1],,5,5,2<5[24:6],,7,7,
{24}2b,,,,,,2b,1,8,7,6,5,
{16}2v7[8:1]/4v7[8:1],,3,3,,,,,
{24}1-5[8:1],2,3,8-4[8:1],7,6,,,,,,,
{16}2>5[8:1],2,1,1,2,,{24}1,8,7,
{8}6b-3[8:1],1-6[8:1],6<4[8:2],,
,,7<2b[8:2],,
{24}A7f/1,,,,,,7-1[12:1],6,5,4,3,2,
{16}7-5[12:1],,4,4,7>4[24:6],,2,2,
{24}7b,,,,,,7b,8,1,2,3,4,
{16}7v2[8:1]/5v2[8:1],,6,6,,,,,
{24}8-4[8:1],7,6,1-5[8:1],2,3,,,,,,,
{8}7-4[8:1],2-7[8:1],7>5[8:2],,
,,7-5[12:1],,
7,1-3[12:1],8v5b[8:1],1,
{8}8,1>4[8:1],7b,1,
8-4[8:1],2-6[8:1],8b,,
1,8<5[8:1],2b,8,
1-5[8:1],7-3[8:1],1b<4b[8:2],,
{24}A1f,,,,,,1bp3[8:2],8,7,6,5,4,
{16}1x,,,7x,,,7x,,
{24}2h[8:1]/7b-3[8:1],6,5,4,,,{16}4xz8[8:2],,,,
1x-5[8:1],,,,,,,,
{8}8,1>4[8:1],7b,1,
8-4[8:1],2-6[8:1],8b,,
1,8<5[8:1],2b,8,
1h[16:1],,{16}1b-4[8:1],1,8,8,
{24}1b/8-5[8:1],,,,,,7-2[8:1]/8b,,,,,,
7b/6-3[8:1],,,,,,6b/5,,,,,,
{16}2b/4,,3/5b,,4b/6,,7/5b,,
6/8,8,2,2,4,4,5,5-8>1-4<5-8>1-4<5[16:123],
{8}5b-8>1-4<5-8>1-4<5-8>1-4<5b[16:183]/4,
,,,,,,,
,,,,,,,,
,,,,,,,,
,,,,,,,,
,,,,,,,,
,,,,,,,,
,,,,,,,,
,,,,,,,,
C,,,,C,,,,
C,,,,C,,,,
C,,,,C,,,,
C,,,,C,,,,
4,3,5,6,4,3,5,6,
3,2,6,7,2,1,7,8,
{16}4,5,4,5,3,6,3,6,2,7,2,7,1,8,1,8,
8/1,,2,2,{48}B8,B7,B6,B5,B4,B3,{16}B2,,1w5b[8:1],,7,7,{32}B1,C,B5,,,,,,
{24}6b,7,8,1,2,3,4/6-3-8-5[8:3],7,8,1,2,3,
{8}A6f,,4<7-3[8:2],,
E2f,,8-2>4-6b[8:2],,
7-3[8:1],,,,
{24}2b,1,8,7,6,5,42,1,8,7,6,5,
{16}1,1,3,3,5,5,7,7,
8,8,2,2,1,1,1,1,
{32}8bx/2bx,73,46,5,,,,,1b/7b,2>7b[32:7]/6,53,4,,,,,
{24}A2f/C,,,,,,2-7-4-1[8:3],3,4,5,6,7,
{8}A2f,,8>3-7[8:2],,
E6f,,4b-6<8-2b[8:2],,
3-7[8:1],,,,
{24}6b,5,4,3,2,1,86,5,4,3,2,1,
{8}6-3[8:1],3w7[8:1],6<4[8:2],,,,6,,
{16}6,6,8,8,4,4,4q4b[16:54]/8,4/8q8[16:53],
{8},,,,,,,,
,,,,,,,,
,,,,,,,,
,,,,,,{8}1b>6b[8:2],,
A1f/8,,{24}1-6[8:1],2,3,4,5,6,
{16}1-4[8:1],,4,4,1<4[8:2],,6,6,
1b,,,,{24}1b,8,7,6,5,4,
{16}1q5[8:1]*p5[8:1],,82,82,,,,,
{24}3v8[8:1],2,1,7v4[8:1],6,5,,,,,,,
{16}2>5[8:1],2,6,6,,,{24}6,7,8,
{8}1b-6[8:1],6w2[8:1],
1>7[8:2],,,,8<3b[8:2],,
A8f/1,,{24}8-3[8:1],7,6,5,4,3,
{16}8-5[8:1],,5,5,8>5[8:2],,3,3,
8b,,,,{24}8b,1,2,3,4,5,
{16}8p4[8:1]*q4[8:1],,17,17,,,,,
{24}6v1[8:1],7,8,2v5[8:1],3,4,,,,,,,
{8}8-3[8:1],3w7[8:1],8<2[8:2],,
,,1q5[8:1],,
8p4[8:1]/1,,1>5[8:1]/8,,
8hb[8:1]/A1f,,{32}8hb[8:1]/1,2,3,4,5,,,,
{16}1-6[8:1]/8-3[8:1],,27,27,,,,,
54,,3,3,54,,6,6,
4-7[8:1]/5-2[8:1],,36,36,,,,,
{32}8bh[8:1]/1,2,3,4,5,,,,1bh[8:1]/8,7,6,5,4,,,,
{16}1-6[8:1]/8-3[8:1],,27,27,,,,,
{8}1/8v5[8:1],5-7[12:1]/4,1>7b[8:2]/8,,
1,,8<4[8:1],,
{32}1hb[8:1]/A8f,,,,,,,,1hb[8:1]/8,7,6,5,4,,,,
{16}8-3[8:1]/1-6[8:1],,72,72,,,,,
45,,6,6,45,,3,3,
5-2[8:1]/4-7[8:1],,63,63,,,,,
{32}1bh[8:1]/8,7,6,5,4,,,,8bh[8:1]/1,2,3,4,5,,,,
{8}8/1v4[8:1],4-2[12:1]/5,8<2b[8:2]/1,,
8,1,8,7,{32}73,84,51,62,7,8,1,2,73,84,51,62,7,8,1,2,
{8}7<2>3<4<5<6<7[2:18]/3,,,,,,,,
,,,,,,,,
{16}7,,,7,,,8,,,8,,,8,,8,,
1,,,1,,,2,,,2,,,2,,2,,
A7,,,A7,,,A8,,,A8,,,A8,,A8,,
A1,,,A1,,,A2,,,A2,,,A2,,A2,,
B7,,,B7,,,B8,,,B8,,,B8,,B8,,
B1,,,B1,,,B2,,,B2,,,B2,,B2,,
B3,,,B3,,,B2,,,B2,,,B2,,B2,,
B1,,,B1,,,B8,,,B8,,,B5,,B4,,
